#TITLE:smile like you mean it;
#SUBTITLE:;
#ARTIST:The Killers;
#TITLETRANSLIT:;
#SUBTITLETRANSLIT:;
#ARTISTTRANSLIT:;
#CREDIT:;
#BANNER:smile like you mean it-bn.png;
#BACKGROUND:smile like you mean it-bg.png;
#LYRICSPATH:smile like you mean it.lrc;
#CDTITLE:hot fuss.png;
#MUSIC:Smile Like You Mean It.mp3;
#OFFSET:-5.815;
#SAMPLESTART:53.600;
#SAMPLELENGTH:15.520;
#SELECTABLE:YES;
#BPMS:0.000=125.000,188.000=62.500;
#STOPS:;
#BGCHANGES:;

//---------------dance-single - ----------------
#NOTES:
     dance-single:
     :
     Hard:
     7:
     0.433,0.382,0.265,0.000,0.000:
0000
0000
0000
0000
,
1001
0000
1010
0000
1100
0000
1000
0010
,
0000
1000
0100
0000
0010
0100
1000
0000
,
0010
1000
0001
0000
0011
0000
1100
0000
,
0001
0100
0010
1000
0010
0100
0001
1000
,
0100
0000
0100
0000
0100
0000
1000
0010
,
0000
1000
0001
0000
0011
0000
0100
0000
,
1000
1000
0001
0001
1000
0010
0100
0000
,
0001
0001
0010
1000
1000
0001
0001
0100
,
1000
0000
0010
0000
0001
1000
0100
0000
,
0010
0000
1000
0000
0100
0010
0001
0000
,
0001
0100
0010
0000
1000
0010
1000
0001
,
1000
0100
1000
0000
1000
0100
0001
0000
,
0010
0000
0001
0000
0100
1000
0001
0100
,
0001
1000
0100
0000
0010
0001
1001
0000
,
0010
0001
0010
0100
0010
0001
1000
0000
,
0100
1000
0010
1000
0000
1001
0000
0101
,
1001
0000
0000
0000
0100
0010
0001
0000
,
1000
0000
0010
0000
0010
0100
1000
0100
,
0001
0100
0010
0000
0100
0001
0010
0001
,
1000
0100
0010
0000
0100
0010
0001
1000
,
0001
0100
0001
0001
1000
0010
1000
0010
,
1000
1000
0001
0000
0010
0100
1000
0000
,
0001
1000
0001
0000
1000
0010
1000
0000
,
0100
1000
0001
0001
1000
0100
0001
0001
,
0100
0000
1100
0000
1010
0000
0100
1000
,
0000
0100
0010
0000
0001
0000
0100
0000
,
1010
0100
0001
0001
,
1000
0000
1001
0000
0100
1000
0010
0000
,
0101
0000
1010
0000
0101
0000
0001
0010
,
0000
0001
0100
0000
1010
0000
1100
0000
,
0011
0000
0011
0000
0010
0001
1000
0100
,
0000
0010
0001
0000
0010
0100
1000
0001
,
0101
0001
1000
0100
1000
0100
0010
0001
,
1000
0100
1000
0100
0010
0001
0100
0001
,
0100
0001
0010
1000
0010
0100
0010
0100
,
1000
0100
0000
0011
0000
1100
0000
1000
,
0001
0010
0001
0001
1000
0010
1000
1000
,
0001
0010
0001
0010
0100
1000
0001
0010
,
0001
0010
0100
1000
0001
0001
0100
0001
,
1000
0100
0010
0001
0010
0100
1000
0010
,
0100
0100
1001
0000
0001
1000
0100
0010
,
0100
0100
1001
0000
0001
0100
0010
0100
,
0010
0010
1001
0000
1000
1000
0100
0010
,
0001
0010
1001
0000
0001
0001
0100
0010
,
0100
0100
0001
0000
1000
0001
0010
0001
,
0100
0010
1000
0000
0100
0100
0100
0100
,
0100
1000
0001
0000
;

//---------------dance-single - ----------------
#NOTES:
     dance-single:
     :
     Medium:
     4:
     0.286,0.289,0.199,0.000,0.000:
0000
0000
0000
0000
,
0001
0000
0001
0000
0001
0000
0001
1000
,
0000
1000
0010
0100
,
1001
0100
0001
1000
,
1001
0100
0000
1000
,
0001
0000
1000
0100
1000
0100
1000
0100
,
0000
0001
1000
0001
,
0100
0100
0100
0100
,
0010
0010
0000
1001
,
0100
0000
0001
1000
,
0100
0100
0010
0010
,
1000
0011
0001
1100
,
1000
0101
0001
1000
,
0001
0000
0001
0000
0010
0000
0010
0100
,
0000
0100
1000
0001
,
0010
0010
0001
0001
,
0100
0000
0100
0000
0000
1001
0000
1001
,
1001
0000
0100
0000
,
0010
0000
0001
0000
,
0001
0100
0010
1000
,
1000
0000
0010
0000
0100
0000
0001
0001
,
1000
0100
0010
0000
,
0010
0100
0010
0001
,
1000
0010
0100
0001
,
1000
1000
0010
0010
1000
1000
0001
0000
,
0001
1000
1001
0100
,
0001
1001
0101
0001
,
1000
0100
0010
0001
,
1000
0001
0000
0001
,
0001
1000
1001
1000
,
1010
1001
0001
1000
,
0010
0000
0100
0001
,
0010
0000
0010
0000
0000
0100
0100
0000
,
1000
1000
1000
0000
0001
0000
0010
0000
,
0001
0001
0010
0001
,
1000
1010
0001
1010
,
0001
1000
0000
0001
0000
1000
0000
0010
,
1000
0101
0001
0011
,
1000
0011
1000
0100
,
0010
0001
1000
0010
,
1000
0010
0000
1000
0000
0001
0000
0010
,
0001
0100
0001
0000
1000
0000
1000
0000
,
0010
0010
0010
0000
0001
0000
0001
0000
,
0100
0100
0100
0000
0001
0000
0001
0000
,
0010
0010
0010
0000
1000
0000
1000
0000
,
0100
0100
0100
0000
0001
0000
0001
0000
,
0010
0010
0010
0000
0001
0000
0100
0000
,
1001
0000
0000
0000
;

//---------------dance-single - ----------------
#NOTES:
     dance-single:
     :
     Challenge:
     7:
     0.382,0.387,0.085,0.237,0.000:
0000
0000
0000
0000
,
0001
1000
0100
1000
0001
0000
0001
0010
,
0000
0100
1000
0000
0010
0100
0001
1000
,
0020
0000
0100
0000
0100
0100
0130
0001
,
0020
0000
0100
0000
0000
0000
0031
0100
,
1000
0001
0100
0001
1000
0000
1000
0010
,
0000
0100
0001
0000
0010
0100
1000
0001
,
0020
0000
0100
0000
0100
0000
0130
1000
,
0020
0000
0100
0000
0000
1000
1030
0001
,
1001
0100
1001
0000
,
0010
0001
0010
0001
0100
0001
0100
0001
,
1000
0010
1000
0010
0001
0010
1010
1000
,
0000
0001
1000
0001
1000
0100
0010
0001
,
0100
0001
0100
0001
1000
0010
1000
0010
,
1000
0100
1000
0010
0100
0001
1000
0010
,
1000
0001
0010
0000
,
0000
0001
1000
0010
,
0101
0000
1100
0000
0001
0010
0001
0000
,
1100
0010
0011
1001
,
0001
0100
0001
0000
1000
0010
1000
0200
,
0000
0010
0000
1000
0300
0010
0001
0100
,
1000
0100
0001
1000
0010
1000
0100
0001
,
0000
0200
0000
0010
0000
0001
0300
0010
,
0100
1000
0100
1000
0010
0100
0001
0010
,
0000
0001
0100
0001
1000
0010
0010
0000
,
2010
0000
0100
0000
0010
0000
3002
0100
,
0003
0010
0200
0000
0320
0000
0032
0000
,
0103
0020
2030
3002
,
0103
0020
0001
1030
,
2000
0000
0010
0000
3100
0000
0002
0100
,
0003
0010
0200
0000
2300
0000
3020
0000
,
0130
0200
0302
0023
,
0130
0000
1000
0000
0010
1000
0010
0000
,
0001
1000
0100
0010
,
0001
0100
0010
0100
,
0001
0010
0100
1000
,
0010
0100
0100
0001
,
0001
0010
0010
0100
,
1000
0010
1000
0100
,
0010
0010
0001
0001
,
0100
0010
1000
0100
,
1000
0001
0010
0000
0001
1000
0100
0000
,
1000
0001
0100
0000
0001
1000
0010
0000
,
1000
0001
0010
0000
0001
1000
0100
0000
,
1000
0001
0100
0000
0001
1000
0010
0000
,
1000
0100
1000
0000
0100
0001
0100
0000
,
0001
0010
0001
0000
0010
1000
0010
1000
,
0002
0010
2000
0000
,
3003
0000
0000
0000
;

//---------------dance-single - ----------------
#NOTES:
     dance-single:
     :
     Easy:
     4:
     0.244,0.315,0.114,0.322,0.000: // measure 1
0000
0002
0023
0230
,  // measure 2
2300
0000
0010
3000
,  // measure 3
0100
0002
2003
3200
,  // measure 4
0310
0002
2003
3020
,  // measure 5
0030
0002
0000
0003
,  // measure 6
1000
0001
0100
0000
,  // measure 7
0001
2000
3020
0230
,  // measure 8
0000
0320
2030
3002
,  // measure 9
0000
0000
0000
0003
,  // measure 10
0000
1100
0000
0011
,  // measure 11
0010
1000
0010
0100
,  // measure 12
0000
0001
1000
0010
,  // measure 13
1010
0001
0001
1000
,  // measure 14
0000
0011
0000
1100
,  // measure 15
0000
0001
0010
0100
,  // measure 16
1000
0000
0000
0000
,  // measure 17
0000
0000
0000
0000
0000
1000
0000
0000
,  // measure 18
0002
0000
0103
0000
,  // measure 19
2000
0001
3001
1000
,  // measure 20
1000
0000
0100
0000
,  // measure 21
0010
0001
1000
0000
,  // measure 22
0020
0000
0030
0000
,  // measure 23
0100
0002
0013
1000
,  // measure 24
0000
0001
0000
1000
,  // measure 25
0000
0100
0010
0001
,  // measure 26
0100
0000
0001
1000
,  // measure 27
0010
1000
2000
3020
,  // measure 28
0000
1030
0002
2003
,  // measure 29
0000
3002
0000
0003
,  // measure 30
1010
0000
0001
1000
,  // measure 31
0100
0002
2003
3200
,  // measure 32
0000
0320
0032
2003
,  // measure 33
0000
3020
0000
0000
,  // measure 34
0030
1000
1000
0001
,  // measure 35
0001
0100
0000
0010
,  // measure 36
1001
1000
0000
0010
,  // measure 37
1001
1000
0001
0010
,  // measure 38
0011
1100
1000
1000
,  // measure 39
0000
0001
0100
0010
,  // measure 40
1000
0001
1000
0001
,  // measure 41
0010
0001
0100
0010
,  // measure 42
1000
0001
0000
0010
,  // measure 43
1000
0100
0000
0010
,  // measure 44
1000
0001
0000
0010
,  // measure 45
0001
1000
0000
0100
,  // measure 46
0001
0010
0000
0100
,  // measure 47
0011
1000
0000
1001
,  // measure 48
0020
0000
0030
0000
;

//---------------dance-single - ----------------
#NOTES:
     dance-single:
     :
     Beginner:
     1:
     0.129,0.157,0.028,0.057,0.000:
0000
0000
0000
0000
,
2000
0000
3000
0000
,
0001
0000
0001
0000
,
0010
0000
0000
0000
,
0001
0000
0000
0000
,
0200
0000
0300
0000
,
0010
0000
0010
0000
,
1000
0000
0000
0000
,
0100
0000
0000
0000
,
0010
0010
0010
0000
,
0001
0000
0001
0000
,
1000
0000
1000
0000
,
1000
1000
1000
0000
,
0010
0010
0010
0000
,
1000
0000
1000
0000
,
0001
0000
0000
0000
,
0010
0000
0000
0000
,
0220
0000
0330
0000
,
0001
0000
1000
0000
,
0100
0000
1000
0000
,
0001
0000
0100
0000
,
0020
0000
0030
0000
,
1000
0000
1000
0000
,
0001
0000
0001
0000
,
0010
0010
0010
0000
,
1001
0000
0000
0000
,
0000
0001
0001
0001
,
0000
1000
1000
1000
,
0000
0010
0000
0000
,
1001
0000
0000
0000
,
0000
0010
0010
0010
,
0000
0100
0100
0100
,
0000
0000
0000
0000
,
0010
0000
1000
0000
,
0001
0000
0010
0000
,
0010
0000
0001
0000
,
1000
0000
0100
0000
,
1000
0000
0010
0000
,
0100
0000
0001
0000
,
0010
0000
0010
0000
,
0100
0000
1000
0000
,
0010
0010
0000
0000
,
0100
0100
0000
0000
,
1000
1000
0000
0000
,
0001
0001
0000
0000
,
0010
0010
0000
0000
,
0100
0100
0000
0000
,
2000
3000
0000
0000
;
