#TITLE:seventeen;
#SUBTITLE:(euro mix);
#ARTIST:bambee;
#TITLETRANSLIT:;
#SUBTITLETRANSLIT:;
#ARTISTTRANSLIT:;
#CREDIT:;
#BANNER:SEVENTEEN (Euro Mix).png;
#BACKGROUND:SEVENTEEN (Euro Mix)-bg.png;
#LYRICSPATH:;
#CDTITLE:Happy Paradise 2.png;
#MUSIC:SEVENTEEN (Euro Mix).ogg;
#OFFSET:-0.062;
#SAMPLESTART:23.792;
#SAMPLELENGTH:12.000;
#SELECTABLE:YES;
#BPMS:0.000=155.000;
#STOPS:;
#BGCHANGES:;

//---------------dance-single - ----------------
#NOTES:
     dance-single:
     :
     Hard:
     8:
     0.480,0.584,0.349,0.109,0.022:
0000
0000
0000
0000
,
0000
0000
0000
0000
,
0000
0000
0000
0000
,
0000
0000
0000
0000
,
0000
0000
0000
0000
,
0000
0000
0000
0000
,
0000
0000
0000
0000
,
0000
0000
0000
0000
,
2010
0000
3001
0010
0100
0000
0011
0000
,
1002
0000
1003
0010
0100
0000
1010
0000
,
1001
0001
0001
0000
1001
1000
1000
0000
,
2001
3100
1002
0103
,
0001
0000
0010
0000
0100
0100
0000
1000
,
0010
0000
0100
0000
0001
0001
0000
1000
,
0001
1000
0001
0000
0010
0001
1000
0000
,
1001
0000
0000
0000
,
1000
0000
0010
0000
0100
0001
1000
0000
,
0100
0010
0001
0100
1000
0100
0001
0010
,
0100
0000
1000
0001
0100
0000
0010
0000
,
1000
0000
0100
0000
0010
0001
0100
0001
,
0101
0000
1100
0000
0010
0100
1000
0000
,
0011
0000
1010
0000
0001
1000
0010
0000
,
1000
0010
0100
0010
1000
0100
0010
0001
,
0100
0010
0100
0001
1000
0010
0100
1000
,
0000
0100
0001
0010
,
0100
1000
0100
1000
0001
0010
0001
0010
,
0001
0000
0100
0000
0010
0010
1000
0000
,
0001
0100
0001
0100
0010
1000
0010
1000
,
0100
0000
0010
0000
0001
0001
1000
0010
,
0100
0000
1000
0010
0100
0000
0001
0010
,
0100
0000
0001
0010
0100
0000
1000
0000
,
0010
0100
0001
1000
,
1001
0010
0100
0011
,
1001
0000
1000
0010
0100
0001
1000
0000
,
0001
0010
0001
0010
0000
0100
1000
0000
,
1001
0000
0010
1001
0000
0010
0010
0000
,
0001
0100
0010
0000
1000
0010
0100
0000
,
0010
0001
0010
0100
0010
1000
0010
0100
,
1001
0010
1001
0100
,
1001
0000
1010
0000
1000
0100
0010
0001
,
1000
0000
0100
0000
0010
0001
0100
0000
,
1001
0000
1001
0000
0010
0001
0100
0001
,
0020
0001
0100
0031
,
0001
0001
0001
0000
1000
1000
1000
0000
,
1001
0000
0001
0000
0010
0100
1000
0001
,
0100
0000
0010
0000
1000
0010
0100
0001
,
1000
0000
0001
0000
0010
0100
0000
0020
,
0000
0000
0000
0000
0000
0030
0000
0000
,
0102
0000
0000
0000
1003
0000
0100
0000
0010
0000
0000
0000
1000
0100
1000
0100
,
2000
0000
3001
0100
0010
0000
0101
0000
,
1001
1000
1000
0000
1001
0001
0001
0000
,
1002
0013
2001
3010
,
1000
0000
0000
0000
0100
0000
0000
0000
0010
0000
0001
0000
0100
0010
0100
0010
,
0100
0000
0010
0000
1000
1000
0000
0001
,
1000
0001
1000
0000
0100
1000
0001
0000
,
1001
0000
0001
0001
1000
0000
0001
0001
,
1000
0000
0001
1000
0000
0000
0000
0000
;

//---------------dance-single - ----------------
#NOTES:
     dance-single:
     :
     Medium:
     6:
     0.383,0.461,0.022,0.098,0.000:
0000
0000
0000
0000
,
0000
0000
0000
0000
,
0000
0000
0000
0000
,
0000
1000
0000
0000
,
0000
0000
0000
0000
,
0000
0000
0000
0000
,
0000
0000
0000
0000
,
0000
0000
0000
0000
,
2000
0000
3100
0010
0100
0010
0000
0000
,
0002
0000
0103
0010
0100
0010
0000
0000
,
1000
0100
1000
0000
0001
0100
0002
0000
,
2003
3020
0230
0301
,
2000
0000
3010
0100
0010
0100
0000
0000
,
0002
0000
0013
0001
0010
0100
0000
0000
,
1000
0100
1000
0000
0010
0100
0010
0000
,
1001
0000
0000
0000
,
1000
0000
0100
0000
1000
0100
0000
1000
,
0000
0000
0000
0000
0100
0010
0100
0000
,
0010
0001
0100
0010
,
1000
0010
1000
0010
0100
0001
0100
0001
,
0100
0000
0100
1000
,
0010
0000
0001
0000
0100
1000
0000
0100
,
0000
0000
0000
0000
0001
0100
0001
0000
,
1000
0010
1000
0100
1000
0100
0010
0001
,
1000
0100
0010
0001
,
1000
0010
1000
0000
0001
0100
0001
0000
,
1000
1000
0001
0001
,
0010
0100
0010
0000
0100
1000
0100
0000
,
1000
0000
1000
0000
0010
0000
0010
0100
,
0010
0000
0100
0001
0100
0000
0010
1000
,
0010
0000
1000
0100
1000
0000
0100
0000
,
0010
0001
1000
0100
,
0010
0001
1000
0010
,
0100
0001
1000
0010
,
1000
0100
1000
0100
0000
0010
0001
0000
,
0010
0000
0001
0100
0000
0010
1000
0000
,
1000
0000
0100
0000
1000
0100
0000
1000
,
0000
0100
0010
0000
0001
0010
0001
0000
,
0100
0010
1001
0100
,
1000
0000
0100
0000
1000
0100
0010
0001
,
1000
0000
0010
0000
0100
0001
0100
0000
,
0010
0000
1000
0000
0001
0100
0001
0100
,
0001
1000
0100
1000
,
0100
1000
0100
0000
0010
0001
0010
0000
,
0001
0000
0100
0000
0010
0100
0010
0000
,
1000
0000
1000
0000
0001
0010
0001
0010
,
0001
1000
1000
0001
,
2000
0000
0000
3000
,
0100
0000
1000
0000
0100
1000
0000
0100
,
0010
0000
0001
0000
0010
0001
0000
0000
,
0100
0010
0100
0000
0001
1000
0001
0000
,
1000
0100
1000
0100
,
0010
0000
0001
0000
0010
0001
0000
0100
,
0010
0000
1000
0000
0100
1000
0000
0100
,
0010
0100
0010
0000
0001
0100
0001
0000
,
1000
0010
1000
0001
,
0100
0000
0010
1000
0000
0000
0000
0000
;

//---------------dance-single - ----------------
#NOTES:
     dance-single:
     :
     Easy:
     3:
     0.209,0.277,0.022,0.065,0.000: // measure 1
0000
0000
0000
0000
,  // measure 2
0000
0000
0000
0000
,  // measure 3
0000
0000
0000
0000
,  // measure 4
0000
0000
0000
0000
,  // measure 5
0000
0000
0000
0000
,  // measure 6
0000
0000
0000
0000
,  // measure 7
0000
0000
0000
0000
,  // measure 8
0000
0000
0000
0000
,  // measure 9
1000
0100
0010
0000
,  // measure 10
0001
0100
0010
0000
,  // measure 11
1000
0000
0001
0000
,  // measure 12
0020
0000
0230
0000
,  // measure 13
1300
0000
0001
0000
,  // measure 14
0100
0010
1000
0000
,  // measure 15
0001
0010
0100
1000
,  // measure 16
0001
0000
0000
0000
,  // measure 17
1000
0000
0001
0000
,  // measure 18
0010
0000
0100
0000
,  // measure 19
1000
0100
0010
0001
,  // measure 20
0100
0000
0010
0000
,  // measure 21
1000
0000
0001
0000
,  // measure 22
0010
0000
0100
1000
,  // measure 23
0010
0000
0100
0000
,  // measure 24
0001
0010
0100
1000
,  // measure 25
0001
0000
1000
0100
,  // measure 26
1000
0000
0000
0000
,  // measure 27
0100
0000
0010
0010
,  // measure 28
0001
0000
0000
0000
,  // measure 29
0100
0000
0010
0010
,  // measure 30
1000
0000
0000
0001
,  // measure 31
0010
0000
0000
0100
,  // measure 32
1000
0000
0000
0100
,  // measure 33
0010
0001
0000
0100
,  // measure 34
0010
0000
0000
0000
,  // measure 35
1000
0000
0100
0000
,  // measure 36
0010
0000
0001
0001
,  // measure 37
1000
0000
0010
0000
,  // measure 38
0100
0000
0001
0100
,  // measure 39
0010
0000
1000
0000
,  // measure 40
0100
0010
0000
0001
,  // measure 41
1000
0001
1000
0001
,  // measure 42
0010
0100
0010
0100
,  // measure 43
1000
0010
1000
0010
,  // measure 44
0100
0100
0001
0001
,  // measure 45
0010
0100
0010
0100
,  // measure 46
1000
0001
1000
0001
,  // measure 47
0100
0010
0100
0000
,  // measure 48
2002
0000
0000
3003
,  // measure 49
1000
0000
0100
0000
,  // measure 50
0010
0001
0100
0000
,  // measure 51
0010
0000
1000
0000
,  // measure 52
0002
0000
2003
0000
,  // measure 53
3100
0000
0010
0000
,  // measure 54
0001
0100
0010
0000
,  // measure 55
1000
0010
0100
0000
,  // measure 56
1001
0000
0100
0000
,  // measure 57
1000
0000
0000
1000
0000
0000
0000
0000
;
