#TITLE:serenade for spring;
#SUBTITLE:;
#ARTIST:KK feat. MANU;
#TITLETRANSLIT:;
#SUBTITLETRANSLIT:;
#ARTISTTRANSLIT:;
#CREDIT:;
#BANNER:SERENADE FOR SPRING.png;
#BACKGROUND:SERENADE FOR SPRING-bg.png;
#LYRICSPATH:;
#CDTITLE:Classical SPEED.png;
#MUSIC:SERENADE FOR SPRING - KK feat. MANU.mp3;
#OFFSET:-7.240;
#SAMPLESTART:14.402;
#SAMPLELENGTH:12.000;
#SELECTABLE:YES;
#BPMS:0.000=200.000;
#STOPS:177.000=0.600
;
#BGCHANGES:;

//---------------dance-single - ----------------
#NOTES:
     dance-single:
     :
     Hard:
     8:
     0.603,0.594,0.490,0.315,0.000:
1001
0000
0000
0001
,
0000
0100
0000
0000
0010
0000
0000
0000
,
0000
0000
1010
0000
0000
0000
0000
0001
,
0100
0010
1000
0100
,
0010
0001
0100
0010
,
1000
0001
0100
0010
,
1000
0100
1000
0001
1000
0100
1000
0001
,
1000
0010
0100
0001
0100
0010
0100
0001
,
1000
0010
1000
0100
0010
0001
0100
0010
,
0100
0001
0010
0100
0010
0001
0100
0010
,
1000
0100
1000
0001
1000
0010
0100
0001
,
0100
0010
1000
0001
0100
0010
1000
0000
,
1000
0100
0010
0001
0100
0010
0100
0001
,
0010
0100
1000
0001
0100
0010
0100
0001
,
1000
0010
1000
0100
0010
0001
0100
0010
,
0100
0001
0010
0100
1000
0001
0100
0010
,
1000
0010
0100
0000
0000
0101
0000
0000
,
0010
0100
1000
0001
0010
0100
1000
0010
,
2000
0001
0100
3002
,
1000
0100
2003
0010
,
3100
1001
1010
0101
,
1002
1000
0010
1000
,
0010
1003
0020
1000
,
0130
1010
0110
1010
,
2001
0001
3001
0002
,
0100
0100
0103
0010
,
1000
1001
0010
0001
,
2010
0010
0010
0010
,
0010
3010
0200
0001
,
0001
0001
0001
0301
,
2000
0001
0001
0001
,
3001
0010
1000
0100
,
0100
0010
1000
0001
,
1001
0010
0101
0101
,
0010
1000
1001
0010
,
0100
0001
1000
0010
,
1100
0010
1001
1001
,
0010
0100
0101
1000
,
0100
0001
0100
2000
,
3020
0230
0302
0023
,
0030
0002
2003
3000
,
0020
0230
0302
2003
,
3020
2030
3002
0203
,
0000
0320
0000
0000
,
0030
0000
1001
0000
1000
0010
1000
0010
,
0100
0010
0100
0001
0100
0001
0010
0001
,
0010
0001
1000
0001
1000
0010
1000
0000
,
0100
1000
1100
0001
,
0100
0101
0010
1000
,
1001
0101
0101
1001
,
1001
0000
0101
0000
1000
0100
0010
0001
,
1000
0100
0010
0001
1000
0100
0010
0001
,
0010
0100
1000
0001
0010
0100
1000
0000
,
0010
0101
0101
1000
,
1010
1010
0001
0101
,
0101
1010
1001
1010
,
0011
0000
0101
0000
0110
0000
1000
0100
,
0010
0100
1000
0100
0001
0100
1000
0100
,
0010
0100
0001
0100
1000
0100
0002
0000
,
0000
0000
0000
0000
0000
0000
0000
0003
;

//---------------dance-single - ----------------
#NOTES:
     dance-single:
     :
     Easy:
     4:
     0.290,0.311,0.058,0.140,0.000: // measure 1
1000
0000
0000
0000
,  // measure 2
0000
0000
0001
0000
,  // measure 3
0000
1000
0000
0000
,  // measure 4
0001
0000
0001
0000
,  // measure 5
0001
0000
0001
0000
,  // measure 6
0001
1000
0100
1000
,  // measure 7
0001
0000
0001
1000
,  // measure 8
0100
1000
0001
0000
,  // measure 9
0001
1000
0100
1000
,  // measure 10
0010
0000
0010
0100
,  // measure 11
0001
0100
0001
0000
,  // measure 12
0001
1000
0100
1000
,  // measure 13
0010
0000
0010
0100
,  // measure 14
0001
1000
0100
0000
,  // measure 15
0100
0000
1000
0010
,  // measure 16
0100
0000
0001
0000
,  // measure 17
1000
0000
0100
0001
,  // measure 18
1000
0010
1000
0001
,  // measure 19
2000
3000
0000
0002
,  // measure 20
0003
0000
2000
3000
,  // measure 21
0000
0010
0010
0100
,  // measure 22
0002
0003
0000
0000
,  // measure 23
0000
1000
2000
3000
,  // measure 24
0000
0001
0100
0010
,  // measure 25
2000
3000
0000
0002
,  // measure 26
0003
0001
0000
0001
,  // measure 27
0000
2000
0000
3000
,  // measure 28
0002
0000
0000
0000
,  // measure 29
0003
0000
0200
0000
,  // measure 30
0000
0000
0300
0000
,  // measure 31
0002
0000
0000
0003
,  // measure 32
0000
0000
0000
0000
,  // measure 33
0000
0000
0000
0000
,  // measure 34
1000
0000
0110
0110
,  // measure 35
0000
0000
0001
0000
,  // measure 36
1000
0000
0001
0000
,  // measure 37
1000
0000
0110
0110
,  // measure 38
0000
0000
0001
0000
,  // measure 39
1000
0100
0001
1000
,  // measure 40
0010
0100
0001
1000
,  // measure 41
0000
1000
0100
0000
,  // measure 42
0100
1000
0010
0100
,  // measure 43
0001
1000
0010
0100
,  // measure 44
0000
0001
0000
0000
,  // measure 45
0000
1001
1000
0100
,  // measure 46
0001
0100
1000
0010
,  // measure 47
1000
0010
1000
0001
,  // measure 48
0100
0001
0001
1000
,  // measure 49
0010
0100
0001
1000
,  // measure 50
0010
0010
1000
0100
,  // measure 51
1000
0001
0100
1000
,  // measure 52
0100
0010
0100
0001
,  // measure 53
1000
0100
0001
1000
,  // measure 54
0010
0100
0100
0001
,  // measure 55
1000
0010
0010
1000
,  // measure 56
0100
1000
0001
0100
,  // measure 57
0010
1000
1000
0010
,  // measure 58
0010
0010
0010
0010
,  // measure 59
0010
0010
0010
2000
,  // measure 60
0000
3000
0000
0000
;

//---------------dance-single - ----------------
#NOTES:
     dance-single:
     :
     Medium:
     7:
     0.548,0.586,0.490,0.432,0.000:
1001
0000
0000
0000
0000
0100
0000
0000
,
1000
0000
0010
0000
,
0000
0000
0100
0000
0000
0000
0000
0001
,
0010
0001
0000
0001
,
0000
0001
0000
0001
,
0000
0001
1000
0100
,
1000
0000
0010
1000
0000
1000
0100
0000
,
1000
0000
0010
0000
0100
0000
0001
0100
,
0000
0100
0010
0000
1000
0000
0100
0000
,
0010
0000
0001
0100
0000
0100
0010
0000
,
1000
0000
0100
0000
1000
0000
0010
1000
,
0000
1000
0010
0000
0100
0000
0001
0000
,
1000
0000
0010
0100
0000
0100
0001
0000
,
0100
0000
0010
0000
1000
0000
0100
1000
,
0000
1000
0010
0000
0100
0001
0000
0001
,
0100
0000
0010
1000
0000
1000
0100
0000
,
1000
0000
1001
0000
0000
1010
0000
0000
,
0101
0000
1000
0100
1000
0010
1000
0100
,
2000
0001
0001
3002
,
1000
1000
2003
0100
,
3100
0200
2300
3002
,
0013
0001
1000
0100
,
1000
0200
2300
0001
,
0100
3001
0100
0010
,
2002
0000
3003
0220
,
0000
0330
1000
0000
0100
0000
1000
0000
,
0001
2000
3010
1000
,
2200
0000
0000
3300
0010
0000
0100
0000
,
0001
0000
1000
0000
2200
0000
0000
3300
,
0010
0100
0001
0010
,
2200
0000
0000
3300
0000
0000
0001
0000
,
1000
0100
0100
1000
,
0010
0100
0001
0010
,
1001
0010
0101
0101
,
0010
1000
1100
0010
,
0100
0001
1000
0010
,
1100
0010
1001
1001
,
0010
0100
0011
0010
,
1000
0100
1000
0020
,
2030
3200
2300
3020
,
0030
0200
0302
0003
,
2000
3200
2300
3200
,
2300
3002
0203
0320
,
0030
2002
0000
0000
,
3003
0000
1001
0000
0001
0100
0010
0100
,
0001
0100
0010
0100
0001
0100
0010
0100
,
0001
0100
0010
0100
0001
0010
0001
0000
,
1000
1100
1010
0001
,
0101
0110
1000
1100
,
1010
1010
0110
1001
,
0011
0000
1100
0000
0001
1000
0100
1000
,
0001
1000
0100
1000
0001
1000
0100
1000
,
0001
1000
0100
1000
0001
1000
0100
1000
,
0001
1100
1001
0010
,
1100
1001
0010
1100
,
1001
1100
1010
0011
,
0110
0000
0101
0000
1010
0000
0100
0001
,
0100
0010
0100
0001
0100
0010
0100
0001
,
0100
0010
0100
0010
0100
0001
2000
0000
,
0000
3000
0000
0000
0000
0000
0000
0000
;
