#TITLE:say this sooner;
#SUBTITLE:;
#ARTIST:the ALMOST;
#TITLETRANSLIT:;
#SUBTITLETRANSLIT:;
#ARTISTTRANSLIT:;
#CREDIT:;
#BANNER:Say This Sooner.png;
#BACKGROUND:Say This Sooner-bg.png;
#LYRICSPATH:;
#CDTITLE:SouthernWeather.png;
#MUSIC:Say This Sooner.ogg;
#OFFSET:-0.139;
#SAMPLESTART:47.627;
#SAMPLELENGTH:14.000;
#SELECTABLE:YES;
#BPMS:0.000=121.000,58.000=242.000,190.000=121.000,267.000=242.000;
#STOPS:;
#BGCHANGES:;

//---------------dance-single - ----------------
#NOTES:
     dance-single:
     :
     Hard:
     9:
     0.542,0.646,0.305,0.107,0.057:
0000
0000
0000
0000
,
0000
0000
0000
0000
,
0000
0000
0000
0000
,
0000
0000
0000
0000
0000
0000
0000
0000
0000
0000
0000
0000
0000
0000
0000
1000
,
0000
0100
1000
0000
0001
0000
0100
0001
0000
0100
0001
0000
1000
0000
0010
0100
,
0000
0010
0100
0000
0010
0000
1000
0000
0100
0000
1000
0000
0010
0000
1000
0001
,
0000
0010
0001
0000
1000
0000
0100
1000
0000
0010
1000
0000
0001
0000
0010
0001
,
0000
1000
0100
0000
1000
0000
0010
0000
0001
0000
0010
0000
1000
0000
0001
0000
,
0010
0001
0010
0001
0010
0000
0001
0000
,
1000
0010
1000
0010
,
2000
0000
0000
0000
,
3002
0000
0000
0000
,
0003
1000
0010
1000
0010
0000
1000
0000
,
0001
0010
0001
0010
,
0000
0000
0000
0000
0000
0000
0000
0000
0000
0000
0000
0001
0000
0000
0000
0000
0000
0000
0000
0000
0000
0000
0000
0000
,
0000
0000
0000
0000
,
0000
0000
0000
0000
,
0000
0000
0000
1001
0000
0000
1000
0100
,
1000
0100
1000
0010
0000
0000
0100
0001
,
0100
0001
0100
0010
0000
0000
1000
0010
,
1000
0100
1000
0010
1000
0100
1000
0010
,
1000
0100
1000
0010
0000
0000
1000
0001
,
1000
0001
1000
0100
0000
0000
0010
0001
,
0010
0001
0010
0100
0000
0000
1000
0010
,
1000
0010
1000
0001
1000
0010
0100
0001
,
1000
0100
1000
0010
0000
0000
0100
1000
,
0100
0010
0100
0001
0000
0000
0010
0001
,
0010
0100
0010
1000
0000
0000
0010
0001
,
0100
0010
1000
0100
0010
0100
1000
0001
,
0100
1000
0100
0001
1000
0000
1000
0000
,
0001
1000
0001
0000
0010
0000
0010
0000
,
0100
0010
0100
0000
1000
0010
1000
0010
,
0100
0001
0100
0001
1000
0100
0001
0100
,
1000
0001
0100
0010
0000
1000
0100
1000
,
0010
1000
0010
0100
0000
0001
0010
0001
,
0010
0100
0010
0100
1000
0000
0001
0100
,
0001
0000
1000
0001
1000
0000
0100
0010
,
0001
0100
0010
1000
0001
0000
2000
0000
,
0100
3100
0200
0001
,
0301
0000
0110
0000
1000
0001
0010
0000
,
0011
0000
1010
0000
1000
0010
0100
0001
,
1000
0100
0001
0100
0000
1000
0010
1000
,
0100
0010
0001
0100
0000
0010
1000
0100
,
1000
0010
1000
0001
0010
0000
0001
0000
,
0100
1000
0010
0100
,
0001
0100
0010
1000
0001
0000
1100
0000
,
0010
0001
0100
0000
0010
0000
1000
0001
,
1000
0000
0001
0000
1000
0000
0001
0000
1000
0100
1000
0000
0100
0000
1000
0000
,
0010
1000
0001
0000
0100
0000
0020
0000
,
2030
0000
0000
0000
3200
0000
0000
0000
0310
0001
0010
0000
0001
0000
0100
0000
,
0001
0010
0100
0000
1000
0000
0101
0000
,
1000
0010
0101
0000
1000
0000
0000
0100
,
0000
0000
1000
0000
0001
0000
0000
0010
,
0000
0000
0100
0000
1100
0000
0000
0101
,
0000
0000
1001
0000
0011
0001
1000
1010
,
0100
0001
0110
0000
1001
0000
1000
0100
,
1000
0000
0101
0000
1001
0000
0001
0010
,
0001
0100
0001
0000
1001
0000
1000
0010
,
0100
0000
0101
0000
1100
0000
0010
0001
,
1000
0010
0100
0000
0002
0000
0000
0000
,
2000
3003
0001
0100
,
1000
0100
0020
0000
,
0100
0100
0200
0000
,
0000
0000
0330
0000
1000
0100
1000
0000
,
0001
0100
0001
0000
1000
0010
0100
0001
,
1000
0100
0010
0000
0002
0000
0000
0000
,
0000
0000
0010
0000
0000
0013
0000
0000
,
0000
0000
0000
0000
,
0000
1001
0000
0000
0010
0000
1100
0000
,
0000
0011
0000
1000
0010
1000
0001
0000
,
0000
1100
0000
0001
0100
0000
1001
0000
,
0000
0011
0000
0010
0001
0100
0001
0000
,
0001
1000
0000
1000
0001
0000
0011
0000
,
0000
1001
0000
1000
0010
0000
1000
0000
,
0001
0000
1000
0010
1000
0000
0101
0000
,
1100
0000
0010
0001
0100
0010
1000
0001
,
0100
1000
0000
0100
0001
0000
1100
0000
,
0000
0011
0000
1000
0010
0000
1001
0000
,
0010
0001
0100
0000
0010
1000
0100
1000
,
0001
0100
0001
0000
1000
0010
1000
0001
,
0010
0001
0100
0000
1001
0000
1010
0000
,
0000
0000
0000
0000
0001
1000
0001
1000
,
0001
1000
0000
1000
0001
0000
0010
0000
,
0010
0000
0100
1000
0100
0000
2000
0000
,
0000
3010
0000
0010
0100
0000
0101
0000
,
1010
0000
1000
0001
0100
0000
0002
0000
,
0000
0013
0000
0010
0100
0000
1100
0000
,
0101
0000
1010
0000
0100
0001
1000
0000
,
0000
0011
0000
0100
1000
0010
0100
0000
,
0001
1000
0000
0000
0000
0000
0000
0000
;

//---------------dance-single - ----------------
#NOTES:
     dance-single:
     :
     Medium:
     7:
     0.386,0.442,0.374,0.069,0.027:
0000
0000
0000
0000
,
0000
0000
0000
0000
,
0000
0000
0000
0000
,
0000
0000
0000
0000
0000
0000
0000
0000
0000
0000
0000
0000
0000
0000
0000
0010
,
0000
0000
0000
0000
0000
0000
0000
0100
0000
0000
0000
0000
0000
0000
0000
1000
,
0000
0000
0000
0000
0000
0000
0000
0000
0000
0000
0000
0000
0000
0000
0000
0001
,
0000
0000
0000
0000
0000
0000
0000
1000
0000
0000
0000
0000
0000
0000
0000
0001
,
0000
0000
0000
0000
0000
0000
0000
1000
0000
0000
0000
0000
0000
0000
0000
0000
,
0000
0001
1000
0001
1000
0000
0100
0000
,
1000
0000
1000
0010
,
0200
0000
0000
0000
,
0002
0000
0303
0000
,
0000
1000
0010
1000
0100
0000
1000
0000
,
0001
0000
1000
1000
,
0000
0000
0000
1000
0000
0000
0000
0000
,
0000
0000
0000
0000
,
0000
0000
0000
0000
,
0000
0000
0000
1000
0000
0000
1000
0000
,
0001
0000
1000
0001
0000
0000
0001
0000
,
0100
0000
0010
1000
0000
0000
1000
0000
,
0001
1000
0100
1000
,
0001
0000
0100
0001
0000
0000
0100
0000
,
0010
0000
1000
0100
0000
0000
0000
1000
,
0001
0000
0010
0001
0000
0000
0000
0000
,
0000
0000
1000
0001
,
1000
0000
0001
1000
0000
0000
0001
0000
,
0100
0000
0010
1000
0000
0000
0100
0000
,
1000
0000
0010
1000
0000
0000
0100
0000
,
0010
0001
1000
0100
,
0010
0001
1000
1000
,
0010
0010
0100
0100
,
0001
0000
0001
0000
0010
0100
0010
0000
,
0100
0000
1000
0000
0010
1000
0010
0000
,
1000
0000
0001
1000
0000
0000
0001
0000
,
0100
0000
0010
1000
0000
1000
0100
0000
,
0010
0000
0001
0100
0000
0100
0010
0000
,
1000
0000
0001
0100
0000
0010
1000
0000
,
0100
0000
0010
0001
0000
1000
0100
0000
,
0010
0000
0001
1000
0000
0100
0010
0000
,
0001
1000
1000
1000
,
0001
0001
0100
0100
,
0010
0010
1000
0100
,
1000
0000
0000
0001
0000
0000
0100
0000
,
0010
0000
0000
1000
0000
0000
0001
0000
,
0010
0000
0100
1000
0000
0001
0100
0000
,
0010
0000
1000
0001
0000
1000
0001
0000
,
1000
0000
0000
1000
,
1000
1000
1000
1000
,
0001
0001
0010
0010
,
0100
0100
2000
3010
,
0020
0130
0200
0301
,
0002
0000
1003
0000
1001
0000
0000
1001
,
0000
0000
1100
0000
1100
0000
0000
1100
,
0000
0000
0101
0000
0101
0000
0000
0101
,
0000
0000
0110
0000
0110
0000
0000
1001
,
0000
0000
1001
0000
1000
0000
0001
1000
,
0001
0000
0100
0000
0010
1000
0100
1000
,
0010
1000
0100
0000
0010
0000
0001
0100
,
0001
0010
0001
0000
0100
0010
0100
0001
,
0100
0010
0100
0000
1001
0000
0000
0000
,
1000
0000
1000
0100
,
0010
0100
2000
0000
,
0010
0000
0010
0000
0000
0020
0000
0000
,
0000
3030
0000
0000
1001
0000
0000
0000
,
1100
0000
0000
0000
1000
0010
0100
0010
,
1000
0100
0010
0100
1000
0000
0000
0000
,
0000
0000
1001
0000
0000
1001
0000
0000
,
0000
0000
0000
0000
,
0000
1001
1001
1001
,
0000
1001
0000
0000
1001
0000
1001
0000
,
0000
1001
0000
0000
1001
0000
1001
0000
,
0000
1001
0000
0000
1001
0000
1001
0000
,
0000
1001
0000
0000
1001
0000
1001
0000
,
0000
1001
0000
0000
1001
0000
1001
0000
,
0000
0000
0001
0100
0001
0000
0100
0000
,
0100
0000
0010
0100
0010
0100
0010
0100
,
0010
0100
0000
0000
1001
0000
1001
0000
,
0000
1001
0000
0000
1001
0000
1001
0000
,
0000
1001
0000
0000
1001
0000
1001
0000
,
0000
1001
0000
0000
1001
0000
1001
0000
,
0000
0110
0000
0000
0110
0000
0110
0000
,
0000
0000
0000
0000
1000
0001
1000
0001
,
1000
1000
1000
1000
,
0000
1000
0000
1000
,
0000
0001
0000
0000
0001
0000
0001
0000
,
0000
0001
0000
0001
,
0000
0100
0000
0000
0100
0000
0100
0000
,
0000
0100
0000
0100
,
0000
0010
0000
1000
0010
1000
0010
0000
,
1000
0000
0000
0000
0000
0000
0000
0000
0000
0000
0000
0000
0000
0000
0000
0000
0000
0000
0000
0000
0000
0000
0000
0000
0200
0300
0000
0000
0000
0000
0000
0000
0000
0000
0000
0000
0000
0000
0000
0000
0000
0000
0000
0000
0000
0000
0000
0000
0000
0000
0000
0000
0000
0000
0000
0000
0000
0000
0000
0000
0000
0000
0000
0000
0000
0000
0000
0000
0000
0000
0000
0000
0000
0000
0000
0000
0000
0000
0000
0000
0000
0000
0000
0000
0000
0000
0000
0000
0000
0000
0000
0000
0000
0000
0000
0000
0000
0000
0000
0000
0000
0000
0000
0000
0000
0000
0000
0000
0000
0000
0000
0000
0000
0000
0000
0000
0000
0000
0000
0000
0000
0000
0000
0000
0000
0000
0000
0000
0000
0000
0000
0000
0000
0000
0000
0000
0000
0000
0000
0000
0000
0000
0000
0000
0000
0000
0000
0000
0000
0000
0000
0000
0000
0000
0000
0000
0000
0000
0000
0000
0000
0000
0000
0000
0000
0000
0000
0000
0000
0000
0000
0000
0000
0000
0000
0000
0000
0000
0000
0000
0000
0000
0000
0000
0000
0000
0000
0000
0000
0000
0000
0000
;

//---------------dance-single - ----------------
#NOTES:
     dance-single:
     :
     Easy:
     5:
     0.202,0.510,0.015,0.000,0.000: // measure 1
0000
0000
0000
0000
,  // measure 2
0000
0000
0000
0000
,  // measure 3
0000
0000
0000
0000
,  // measure 4
0000
0000
0000
0000
,  // measure 5
0000
0000
1000
0000
,  // measure 6
1000
0000
1000
1000
,  // measure 7
0001
0000
0001
0000
,  // measure 8
0001
0000
0001
0001
,  // measure 9
1000
0000
0000
0000
,  // measure 10
0000
0000
0000
0000
,  // measure 11
1000
0000
0001
1000
,  // measure 12
0001
0000
0000
0000
,  // measure 13
0000
1000
0000
1000
,  // measure 14
0000
1000
0000
1000
,  // measure 15
0000
0000
0000
1000
0000
0000
0000
0000
,  // measure 16
0000
0000
0000
0000
,  // measure 17
0000
0000
0000
0000
,  // measure 18
0000
0000
0000
1000
0000
0000
0010
0000
,  // measure 19
1000
0000
0000
0010
0000
0000
0000
0000
,  // measure 20
0000
0000
0001
0000
,  // measure 21
0000
0000
0000
0000
,  // measure 22
0000
0000
0000
1000
0000
0000
0001
0000
,  // measure 23
1000
0000
0000
0001
0000
0000
0000
0000
,  // measure 24
0000
0000
0000
0000
0000
1000
0000
0000
,  // measure 25
0000
0000
0000
0000
,  // measure 26
0000
0000
0000
0001
0000
0000
1000
0000
,  // measure 27
0001
0000
0000
1000
0000
0000
0000
0000
,  // measure 28
0000
0000
0000
0001
0000
0000
0000
0000
,  // measure 29
0000
0000
0000
0000
,  // measure 30
0000
0000
1000
0000
,  // measure 31
1000
0000
1000
0000
,  // measure 32
1000
0000
0001
0000
,  // measure 33
0001
0000
0001
0000
,  // measure 34
0001
0000
1000
0000
,  // measure 35
0000
0000
0001
0000
,  // measure 36
0000
0000
1000
0000
,  // measure 37
0000
0000
0001
0000
,  // measure 38
0000
0000
1000
0000
,  // measure 39
0000
0000
0001
0000
,  // measure 40
0000
0000
1000
0001
,  // measure 41
1000
0000
0010
0100
,  // measure 42
0010
0100
0010
0000
,  // measure 43
0000
1000
0010
1000
,  // measure 44
0000
0100
0010
0001
,  // measure 45
0000
0100
0010
1000
,  // measure 46
0001
0100
0010
1000
,  // measure 47
0000
0001
0100
0010
,  // measure 48
1000
0001
1000
1000
,  // measure 49
1000
1000
0001
0001
,  // measure 50
0001
0001
0010
0010
,  // measure 51
0010
0010
0100
0110
,  // measure 52
0100
0000
0110
0000
1000
0000
0000
1000
,  // measure 53
0000
0000
0000
0000
0001
0000
0000
0001
,  // measure 54
0000
0000
0000
0000
0100
0000
0000
0100
,  // measure 55
0000
0000
0000
0000
0010
0000
0000
0010
,  // measure 56
0000
0000
0000
0000
1000
0010
1000
0010
,  // measure 57
1000
0010
1000
0000
0001
0100
0001
0100
,  // measure 58
0001
0100
0001
0000
0010
0100
0010
0100
,  // measure 59
0010
0100
0010
0000
0100
1000
0100
0000
,  // measure 60
1000
0010
1000
0000
0001
0000
0000
0000
,  // measure 61
0000
0000
0000
0000
,  // measure 62
0000
0000
0000
0000
,  // measure 63
0000
0000
0000
0000
,  // measure 64
0000
0000
1000
0000
,  // measure 65
1000
0000
0100
0010
,  // measure 66
0001
0001
1000
0000
,  // measure 67
0000
0000
1000
0000
0000
1000
0000
0000
,  // measure 68
0000
0000
0000
0000
,  // measure 69
0000
1000
0000
0000
0000
0000
0000
0000
,  // measure 70
0000
0001
0000
0000
0000
0000
0000
0000
,  // measure 71
0000
0010
0000
0000
0000
0000
0000
0000
,  // measure 72
0000
0100
0000
0000
0000
0000
1000
0000
,  // measure 73
0000
0010
0000
0000
,  // measure 74
0000
0010
0000
0000
0000
0000
0100
0000
,  // measure 75
0000
0001
0100
0001
,  // measure 76
0000
1000
0001
1000
,  // measure 77
0000
0001
0000
0000
,  // measure 78
0000
0001
0000
0000
0000
0000
0000
0000
,  // measure 79
0000
1000
0000
0000
0000
0000
0000
0000
,  // measure 80
0000
0100
0000
0000
0000
0000
0010
0000
,  // measure 81
0000
0001
0000
0000
0000
0000
0000
0000
,  // measure 82
0000
0100
0000
0010
,  // measure 83
0000
1000
0000
0000
0001
0000
1000
0000
,  // measure 84
0001
1000
0001
1000
,  // measure 85
0000
0001
0000
0000
0010
0000
0100
0000
,  // measure 86
0010
0100
0010
0100
,  // measure 87
0000
1000
0000
0000
0010
0000
1000
0000
,  // measure 88
0010
1000
0010
0100
,  // measure 89
0000
0001
0000
0000
0100
0000
0001
0000
,  // measure 90
1000
0001
0000
0000
0000
0000
0000
0000
;
