#TITLE:polyrhythm;
#SUBTITLE:;
#ARTIST:Perfume;
#TITLETRANSLIT:;
#SUBTITLETRANSLIT:;
#ARTISTTRANSLIT:;
#CREDIT:;
#BANNER:POLYRHYTHM.png;
#BACKGROUND:POLYRHYTHMBG.png;
#LYRICSPATH:POLYRHYTHM.lrc;
#CDTITLE:POLYRHYTHMCDT.png;
#MUSIC:POLYRHYTHM.ogg;
#OFFSET:0.000;
#SAMPLESTART:14.955;
#SAMPLELENGTH:15.000;
#SELECTABLE:YES;
#BPMS:0.000=127.980,29.000=153.600,31.500=128.000;
#STOPS:31.500=0.195
;
#BGCHANGES:-0.325=Poly.avi=1.000=0=1=0,
63.675=Rhythm.avi=1.000=0=1=0,
99999=-nosongbg-=1.000=0=0=0 // don't automatically add -songbackground-
;

//---------------dance-single - Light----------------
#NOTES:
     dance-single:
     Light:
     Easy:
     2:
     0.174,0.195,0.020,0.173,0.000: // measure 1
0000
0000
0000
0000
,  // measure 2
0000
0000
0000
0000
,  // measure 3
0000
0000
0000
0000
,  // measure 4
0000
0000
0000
0000
,  // measure 5
1000
0100
2000
3000
,  // measure 6
0010
0001
0010
0002
,  // measure 7
0000
1000
0000
1000
,  // measure 8
0000
1003
0000
0000
,  // measure 9
1001
0000
1000
2000
,  // measure 10
3000
0000
0010
0001
,  // measure 11
0000
1000
1000
0100
,  // measure 12
0000
1000
0010
0100
,  // measure 13
0000
0000
0001
0002
,  // measure 14
0003
0000
0010
1000
,  // measure 15
0000
0001
0001
1000
,  // measure 16
0000
0000
0000
0000
,  // measure 17
0000
0010
0000
0010
,  // measure 18
0000
0010
0000
0010
,  // measure 19
0000
0010
0000
0010
,  // measure 20
0000
0010
1000
0001
,  // measure 21
0010
0000
0010
0000
,  // measure 22
0010
0000
0010
0000
,  // measure 23
0010
0000
0010
0000
,  // measure 24
0010
0001
0100
0010
,  // measure 25
2000
0000
0000
3001
,  // measure 26
2000
0000
0000
3100
,  // measure 27
0020
0000
0000
0030
,  // measure 28
0000
0010
0001
1000
,  // measure 29
0020
0000
0000
1000
,  // measure 30
1000
0000
0000
0100
,  // measure 31
0100
0000
0000
0000
0000
0030
1000
0000
,  // measure 32
0001
0000
1000
0000
,  // measure 33
1000
1000
1000
0000
,  // measure 34
0000
0001
0001
0001
,  // measure 35
0000
0000
0010
0010
,  // measure 36
0010
0000
0000
0001
,  // measure 37
0001
0001
0000
0000
,  // measure 38
1000
0001
0100
0100
,  // measure 39
0001
0010
0100
1000
,  // measure 40
0001
0000
0100
0000
0010
0000
0000
2000
,  // measure 41
0000
0000
0000
3000
0002
0000
0000
0000
,  // measure 42
0003
0020
0000
0000
0000
0030
0002
0000
,  // measure 43
0000
0000
0003
2000
0000
0000
0000
3000
,  // measure 44
0020
0000
0000
0000
0030
1000
0000
0000
,  // measure 45
1000
0000
0000
0001
0000
0000
0001
0000
,  // measure 46
0000
0000
0020
0000
0000
0000
0000
0000
0000
0000
0000
0000
0000
0000
0000
0030
,  // measure 47
0000
0000
0002
0000
0000
0000
0000
0000
0000
0000
0000
0003
0000
0000
2000
0000
,  // measure 48
0000
0000
0000
0000
0000
0000
0000
3000
0000
0000
0010
0000
0000
0000
0000
0000
,  // measure 49
1001
0000
0000
0000
;

//---------------dance-single - Standard----------------
#NOTES:
     dance-single:
     Standard:
     Medium:
     5:
     0.277,0.317,0.091,0.010,0.020:
0000
0000
0000
0000
,
0000
0000
0000
0000
,
0000
0000
0000
0000
,
0000
0000
0000
0000
,
1001
1000
1000
0001
,
1000
0010
0010
0200
,
0000
0000
0000
0000
,
0000
0300
0000
0000
,
0110
0000
0010
1000
0010
0000
1000
0000
,
1000
0000
0001
0000
1000
0001
0010
0001
,
0000
0010
0001
0001
,
1000
0000
0010
0000
1000
0010
0100
0010
,
0000
0000
1000
0001
0010
0000
0001
0000
,
0001
0000
1000
0000
0100
1000
0100
0010
,
0000
1000
1000
0010
,
1001
0000
0000
0000
,
0000
0001
0000
0001
0000
1000
0000
0100
,
0000
1000
0000
1000
0000
0001
0000
0100
,
0000
0010
0000
0010
0000
0100
0000
0001
,
0000
0100
0001
0010
,
0000
0001
0000
1000
0000
0100
0000
0010
,
0000
0010
0000
0001
0000
1000
0000
0010
,
0000
0010
0000
1000
0000
0001
0000
0010
,
0000
0010
0001
1000
,
0010
0100
0100
0010
,
1000
0001
0001
1000
,
0100
0010
0010
0001
,
0000
0001
1000
0010
,
1000
1000
0001
1000
,
0100
0100
0010
0001
,
1000
1000
0001
0100
,
0000
0010
1000
0001
,
1001
0000
1000
0010
1000
0000
0001
0000
,
1100
0000
0001
0000
1000
0001
0100
0000
,
0010
0000
0110
0000
1000
0000
0001
1000
,
0100
0001
1001
1000
,
0001
0100
0010
0000
0100
0000
1001
0000
,
1000
0000
0001
0010
0001
0000
1000
0001
,
0000
0100
0001
0000
0100
0010
0000
0100
,
0001
0000
1000
0100
0000
0010
0001
0000
,
0000
1000
0001
1000
0000
0000
0001
0100
,
0010
0000
0000
1000
0001
1000
0000
0000
,
0001
1000
0100
0000
0000
0010
0001
1000
,
0000
0000
0001
0100
0001
0000
1000
0001
,
0000
1000
0100
0000
0010
0001
0000
1000
,
0001
0000
0000
0000
1000
0000
0010
0000
0000
0010
0000
0000
0010
0000
0000
0000
,
0000
0000
1000
0000
0000
1000
0000
0000
1000
0000
0000
0000
0000
0000
0001
0000
,
0000
0001
0000
0000
0001
0000
0000
0000
0000
0000
0010
0000
0000
0100
0000
0000
,
1001
0000
0000
0000
;

//---------------dance-single - Heavy----------------
#NOTES:
     dance-single:
     Heavy:
     Hard:
     8:
     0.404,0.415,0.163,0.081,0.081:
0000
0000
0000
0000
,
0000
0000
0000
0000
,
0000
0000
0000
0000
,
0000
0000
0000
0000
,
0001
0100
0010
1000
,
0100
0010
0001
1000
,
0100
1001
0010
0101
,
1000
0011
0000
0000
,
1000
0100
1000
0001
0100
0000
0010
0000
,
1000
0100
1000
0000
0001
0100
0001
0000
,
1000
0100
0010
0000
0101
0000
0010
0000
,
1000
0000
0001
0000
0010
0001
0100
0001
,
1000
0000
0001
1000
0100
0000
0010
0000
,
0001
0000
1000
0000
0001
0100
0001
1000
,
0100
0000
1000
0100
0001
0000
0100
0000
,
1000
0000
0010
0100
0001
0000
0000
0000
,
0000
1000
0000
0010
0000
0200
0000
0301
,
0000
1000
0000
0100
0000
0020
0000
0031
,
0000
1000
0100
1000
0000
2001
0000
3100
,
0000
0010
0001
0100
0001
0020
0000
0031
,
0000
1000
0000
0010
0000
2000
0000
3100
,
0000
0010
0000
0001
0000
0200
0000
0310
,
0000
1000
0001
0010
0000
2001
0000
3100
,
0000
1000
0010
1000
0100
2000
0000
3010
,
0000
1000
0100
1000
0000
0001
0000
0001
,
0000
0010
0100
0010
0000
0001
0000
0001
,
0000
0100
0010
1000
0000
0010
0000
0010
,
0000
1000
0100
1000
0000
0010
0000
0010
,
0000
1000
0001
0100
0001
1000
0000
1000
,
0000
0001
0010
0100
1000
0010
0000
0010
,
0000
1000
0010
0100
0001
1000
0000
1000
,
0000
0001
0010
1000
0010
0001
0000
0001
,
1000
0010
1000
0100
1000
0001
0010
0001
,
0100
0001
1000
0100
1000
0010
1000
0001
,
0010
0001
0100
0001
1000
0100
0010
0001
,
1000
0001
0010
0100
0010
0001
1000
0100
,
0010
0100
1000
0001
0100
0010
0100
0001
,
1000
0010
0100
0010
1000
0001
0010
1000
,
0001
0100
1000
0010
0100
0001
0010
0100
,
1000
0001
0010
1000
0001
0100
1000
0001
,
0100
0000
0001
0000
0000
0101
0000
0000
1000
0000
0000
0001
0100
0000
0010
0000
,
0000
1000
0000
0000
0001
0000
0000
1010
0000
0000
0001
0000
0000
0010
0100
0000
,
1000
0000
0000
0001
0000
0000
1010
0000
0000
0001
0000
0000
0010
0000
0000
1001
,
0000
0000
0010
0000
0000
0001
0000
0000
1001
0000
1000
0000
0010
0000
0001
0000
,
1000
0100
0001
1000
0010
0001
1000
0100
,
0001
0000
1000
0000
0100
0000
0001
0000
0000
0100
0000
0000
1000
0000
0000
0001
,
0000
0000
0100
0000
0000
0010
0000
0000
1000
0000
0000
0100
0000
0000
0010
0000
,
0000
0011
0000
0000
1010
0000
0000
0101
0000
0000
1100
0000
0000
1001
0000
0000
,
0010
0000
0000
0000
;

//---------------dance-single - Challenge----------------
#NOTES:
     dance-single:
     Challenge:
     Challenge:
     8:
     0.430,0.512,0.264,0.020,0.036:
0000
0000
0000
0000
,
0000
0000
0000
0000
,
0000
0000
0000
0000
,
0000
0000
0000
0000
,
0010
1000
1000
0001
,
0011
1000
1010
0200
,
0010
1000
0010
0001
,
0010
0000
0020
0000
0000
0000
0000
0330
,
1001
0000
1000
0001
0010
0000
0001
0000
,
0100
0000
1000
0010
0100
0010
1000
1000
,
0100
0000
0001
0010
0001
0000
1000
0000
,
0010
0000
0010
0100
0001
0100
0010
1000
,
0000
0000
1000
0001
0010
0000
0100
0000
,
0010
0000
0010
0001
0100
0010
1000
1000
,
0000
0000
1000
1000
0010
0000
0001
0000
,
0110
0000
0000
0000
,
0000
1000
0001
0010
0000
0010
0001
1000
,
0000
0001
1000
0010
0000
0100
0010
0100
,
0001
0000
1000
0000
0100
0001
1000
0001
,
0000
1000
1000
0000
0100
0000
0010
0000
,
0001
1000
0010
0100
0000
0010
0100
0001
,
0000
0100
0010
1000
0000
0001
1000
0100
,
0000
0001
0100
1000
0000
0001
0100
0010
,
0000
0100
0001
0010
0001
0100
0010
1000
,
0001
0000
1000
0000
0001
0000
0010
0100
,
1000
0000
0001
0000
0100
0000
0001
0010
,
0100
0000
1000
0000
0010
0000
0100
0010
,
0000
0001
0010
0100
1000
0100
0010
0001
,
1000
0000
0010
0000
0001
0000
0010
0100
,
1000
0000
0001
0000
0100
0000
0001
0010
,
0100
0000
0010
0000
1000
0000
0010
0100
,
0000
0100
0001
0010
0100
0100
0010
0001
,
1001
0001
1000
0010
0100
0101
0001
0010
,
0100
0010
0011
0001
1000
0010
0100
0110
,
0010
1000
0100
0010
1010
0010
0100
0010
,
1000
1100
0010
0100
1000
0001
0110
0010
,
0100
0001
0010
1001
0010
0100
0001
1000
,
0110
0001
1000
0010
0100
0001
0010
0100
,
0010
0100
1000
0100
1000
0010
1000
0010
,
0100
0010
0100
0001
0100
0001
0010
0110
,
1000
0010
0100
0010
1001
0010
0001
0010
,
1000
1001
0010
0100
0001
0100
1010
0001
,
0010
0100
0010
1001
0010
1000
0010
0100
,
1010
0001
1000
0100
0010
0100
0010
0001
,
0010
0001
1000
0001
1000
0010
1000
0010
,
0100
0000
0010
0000
0100
0000
0101
0000
0000
1000
0000
0000
0100
0000
0000
0010
,
0000
0000
1010
0000
0000
0010
0000
0000
0100
0000
0000
0001
0000
0000
1001
0000
,
0000
0100
0000
0000
0011
0000
0000
1000
0000
0000
0101
0000
0000
0110
0000
0000
,
1001
0000
0000
0000
;
