#TITLE:夏祭り;
#SUBTITLE:;
#ARTIST:Whiteberry;
#TITLETRANSLIT:natsu matsuri;
#SUBTITLETRANSLIT:;
#ARTISTTRANSLIT:;
#CREDIT:;
#BANNER:natsu matsuri.png;
#BACKGROUND:natsu matsuri-bg.png;
#LYRICSPATH:;
#CDTITLE:cd.png;
#MUSIC:natsu matsuri.mp3;
#OFFSET:-0.513;
#SAMPLESTART:58.329;
#SAMPLELENGTH:12.880;
#SELECTABLE:YES;
#BPMS:0.000=71.556,2.000=70.464,4.000=70.838,6.000=68.807,8.000=71.386,10.000=72.771,12.000=68.221,14.000=70.216,16.000=70.464,18.000=71.217,20.000=69.284,22.000=69.085,24.000=72.464,26.000=70.505,28.000=140.269,32.000=141.928,36.000=141.343,40.000=140.928,44.000=140.845,48.000=141.509,52.000=140.515,56.000=141.509,60.000=140.515,64.000=141.011,68.000=140.845,72.000=141.593,76.000=140.515,80.000=141.509,84.000=142.264,88.000=139.779,92.000=141.176,96.000=141.676,100.000=140.762,104.000=143.541,108.000=137.065,112.000=138.408,116.000=140.269,120.000=142.180,124.000=141.760,128.000=140.928,132.000=141.093,136.000=141.928,140.000=140.928,144.000=138.488,148.000=142.180,152.000=141.093,156.000=142.096,160.000=139.535,164.000=141.176,168.000=140.680,172.000=140.187,176.000=69.686,178.000=71.132,180.000=71.642,182.000=69.808,184.000=69.404,186.000=70.505,188.000=55.402,189.000=55.249,189.500=43.042;
#STOPS:;
#BGCHANGES:-1.275=Natsu Matsuri.avi=1.000=1=1=0
,191.000=natsu matsuri-bg.png=1.000=1=0=1
;

//---------------dance-single - ----------------
#NOTES:
     dance-single:
     :
     Easy:
     4:
     0.297,0.413,0.483,0.058,0.000:
0000
0000
0000
0000
,
0000
0000
0000
0000
,
0000
0000
0000
0000
,
0000
0000
0000
0000
,
1000
0000
0010
0000
1000
0000
0001
0010
,
0001
0000
0010
0000
0100
0000
1000
0010
,
1000
0000
0001
0000
0100
0000
0010
1000
,
0010
0100
0010
0100
,
0001
1000
0001
1000
,
0100
1000
0100
1000
,
0001
0010
0100
1000
,
0101
1000
0101
1000
,
0101
1000
0100
0000
,
1010
0100
1010
0100
,
1010
0100
0001
0000
,
1000
0100
0001
0100
,
2000
0000
3000
0000
,
0001
0100
1000
0100
,
0002
0000
0003
0000
,
1001
0100
1001
0100
,
1001
0100
0010
0000
,
1010
0001
1010
0001
,
1010
0001
0100
0000
,
0001
0010
0100
0010
,
0002
0000
0003
0000
,
1000
0010
0100
0010
,
2000
0000
3000
0000
,
1010
0011
1010
0100
,
0101
1100
0101
0010
,
0001
0010
0100
1000
,
0002
0000
1003
0000
,
1010
0101
1010
0001
,
0011
1001
0011
0100
,
1000
0010
0100
0001
,
2000
0000
3000
0000
,
0011
1010
0011
1010
,
1100
0101
1100
0101
,
1001
1100
1001
0011
,
1001
0000
1001
0000
,
1010
0011
1010
0101
,
1100
0101
1010
0011
,
1010
1100
1010
0101
,
0001
0010
0001
0010
,
0100
1000
0100
1000
,
0010
0000
1000
0000
0100
0000
1000
0010
,
1000
0000
0001
0000
0100
0000
0001
0010
,
0001
0000
1000
0000
0100
0000
0010
0001
,
0010
0000
0100
1000
0100
0000
0000
0000
;

//---------------dance-single - ----------------
#NOTES:
     dance-single:
     :
     Hard:
     8:
     0.422,0.573,0.203,0.029,0.212:
0000
0000
0000
0000
,
0000
0000
0000
0000
,
0000
0000
0000
0000
,
0000
0000
0000
0000
,
1000
0000
0001
0000
0100
0000
0010
1000
,
0100
0000
1000
0000
0010
0000
0100
0001
,
1000
0000
0100
0000
0010
0000
0001
0010
,
0100
1000
0100
0000
0010
0001
0010
0000
0001
0100
0001
0000
1000
0010
1000
0000
,
0001
0100
0001
0000
1000
0100
1000
0000
0010
1000
0010
0000
0100
0001
0100
0000
,
0001
0010
0001
0000
1000
0001
1000
0000
0010
0100
0010
0000
1000
0100
1000
0000
,
0001
0010
0001
0000
1000
0100
1000
0000
0010
1000
0010
0000
0100
0001
0100
0000
,
0001
0000
0010
0100
1000
0000
0100
0010
,
0001
0000
0000
1000
0010
0000
0100
0000
0001
0000
0000
0000
0100
0000
0010
0000
,
1000
0000
0010
0100
0001
0000
0100
0010
,
1000
0000
0000
0001
0010
0000
0100
0000
1000
0000
0000
0000
0010
0000
1000
0000
,
0100
0000
0000
1000
0000
0000
0100
0000
0000
0010
0000
0000
0001
0000
0000
0000
,
0100
0000
0000
0001
0000
0000
0100
0000
0000
0010
0000
0000
1000
0000
0000
0000
,
0001
0000
0000
0010
0000
0000
1000
0000
0000
0010
0000
0000
0001
0000
0000
0000
,
1000
0000
0000
0100
0000
0000
0001
0000
0000
0100
0000
0000
1000
0000
0010
0000
,
0100
0000
0001
0010
0100
0000
1000
0010
,
0100
0000
0000
0001
0010
0000
0100
0000
1000
0000
0000
0000
0010
0000
1000
0000
,
0001
0000
0100
0001
1000
0000
0010
1000
,
0001
0000
0000
1000
0100
0000
0010
0000
0001
0000
0000
0000
1000
0000
0001
0000
,
0100
0000
0000
0010
0000
0000
1000
0000
0000
0010
0000
0000
0100
0000
0000
0000
,
0001
0000
0000
0010
0000
0000
0100
0000
0000
0010
0000
0000
0001
0000
0000
0000
,
1000
0000
0000
0001
0000
0000
0100
0000
0000
0001
0000
0000
1000
0000
0000
0000
,
0001
0000
0000
0010
0000
0000
0100
0000
1000
0001
1000
0000
0100
0000
0010
0000
,
0001
0000
1100
0000
0101
0000
0010
1000
,
0100
0000
1100
0000
1010
0000
0100
0001
,
0010
0000
0011
0000
0101
0000
0001
1000
,
2100
0000
3010
0000
,
0011
0000
0101
0000
1001
0000
0001
0010
,
0100
0000
1100
0000
1010
0000
0100
0001
,
1000
0000
1100
0000
0101
0000
0001
0010
,
0200
0000
0000
0300
,
1001
0100
0010
0100
1000
0001
1000
0000
,
0101
0001
1000
0001
1000
0010
1000
0000
,
0110
0010
1000
0010
0100
0001
0100
0000
,
2010
0000
3001
0000
,
1000
0100
1000
0100
1001
0010
0100
0010
,
0100
1000
0100
1000
0011
0100
1000
0100
,
0010
0100
0010
0100
0101
0100
0001
0100
,
0001
0010
0001
0000
1000
0100
1000
0000
0001
0100
0001
0000
1000
0010
1000
0000
,
0001
1000
0001
0000
0010
0100
0010
0000
0001
1000
0001
0000
0100
0010
0100
0000
,
0001
0000
0010
0000
0100
0000
1000
0001
,
0100
0000
0010
0000
1000
0000
0010
0100
,
0001
0000
0010
0000
0100
0000
1000
0010
,
0100
0000
0001
0010
0100
0000
0000
0000
;

//---------------dance-single - ----------------
#NOTES:
     dance-single:
     :
     Medium:
     7:
     0.374,0.390,0.367,0.000,0.000:
0000
0000
0000
0000
,
0000
0000
0000
0000
,
0000
0000
0000
0000
,
0000
0000
0000
0000
,
0001
0000
0010
0000
0100
0000
1000
0001
,
0100
0000
0010
0000
1000
0000
0100
1000
,
0010
0000
0100
0000
0001
0000
0010
0100
,
1000
0100
1000
0100
0010
0001
0010
0001
,
0100
0001
0100
0001
1000
0010
1000
0010
,
0100
0010
0100
0010
1000
0001
1000
0001
,
0010
0100
0010
0100
1000
0100
0010
0001
,
1000
0000
0010
1000
0001
0000
0010
0001
,
1000
0010
0100
0001
1000
0000
0001
0010
,
0100
0000
1000
0010
0100
0000
0001
0010
,
0100
1000
0100
0010
0001
0000
1000
0001
,
0101
0000
0101
0000
0101
0000
0001
1000
,
1100
0000
0000
0000
0000
0000
1000
0010
,
0110
0000
0110
0000
0110
0000
0001
0010
,
0011
0000
0000
0000
0000
0000
0010
0100
,
1000
0000
0100
0010
0001
0000
0010
0100
,
1000
0010
0100
0001
1000
0000
0001
1000
,
0100
0000
1000
0001
0100
0000
0001
1000
,
0010
1000
0001
0010
0100
0000
1000
0010
,
0110
0000
0110
0000
0110
0000
0001
1000
,
1100
0000
0000
0000
0000
0000
0010
0001
,
0101
0000
0101
0000
0101
0000
0001
1000
,
1010
0000
0000
0000
0001
0010
0100
1000
,
0001
0000
0010
0000
0011
0000
0100
1000
,
0010
0000
0100
0000
0110
0000
0001
1000
,
0100
0000
1000
0000
1001
0000
0010
0100
,
0001
0000
1000
0000
,
0001
0000
0010
0000
0011
0000
0100
1000
,
0010
0000
0100
0000
0110
0000
0001
1000
,
0001
0000
0010
0000
0011
0000
0001
1000
,
0100
0000
0000
0000
,
0011
0000
0101
0000
1001
0000
0001
1000
,
0100
0000
1100
0000
1010
0000
0100
0001
,
0010
0000
0011
0000
0101
0000
0001
1000
,
1001
0000
1001
0000
,
1100
0000
0101
0000
1001
0000
0001
0010
,
0100
0000
1001
0000
1010
0000
0100
0001
,
0010
0000
0011
0000
0101
0000
0001
1000
,
0100
1000
0100
1000
0010
1000
0010
1000
,
0001
0100
0001
0100
0001
0010
0001
0010
,
0100
0000
1000
0000
0001
0000
0100
0010
,
1000
0000
0010
0000
0100
0000
0001
0010
,
0100
0000
1000
0000
0001
0000
0100
0010
,
0100
0000
0001
0010
0100
0000
0000
0000
;

//---------------dance-single - ----------------
#NOTES:
     dance-single:
     :
     Beginner:
     1:
     0.142,0.204,0.135,0.097,0.000: // measure 1
0000
0000
0000
0000
,  // measure 2
0000
0000
0000
0000
,  // measure 3
0000
0000
0000
0000
,  // measure 4
0000
0000
0000
0000
,  // measure 5
1000
0000
0100
0000
,  // measure 6
0001
0000
0010
0000
,  // measure 7
1000
0000
0001
0000
,  // measure 8
1000
0000
1000
0000
,  // measure 9
0001
0000
0001
0000
,  // measure 10
0010
0000
0010
0000
,  // measure 11
0100
0000
0100
0000
,  // measure 12
1000
0000
0000
0000
,  // measure 13
1000
1000
1000
0000
,  // measure 14
0001
0000
0000
0000
,  // measure 15
0001
0001
0001
0000
,  // measure 16
2000
0000
3000
0000
,  // measure 17
0002
0000
0003
0000
,  // measure 18
0020
0000
0030
0000
,  // measure 19
0200
0000
0300
0000
,  // measure 20
0010
0000
0000
0000
,  // measure 21
0010
0010
0010
0000
,  // measure 22
0100
0000
0000
0000
,  // measure 23
0100
0100
0100
0000
,  // measure 24
0002
0000
0003
0000
,  // measure 25
2000
0000
3000
0000
,  // measure 26
0020
0000
0030
0000
,  // measure 27
0200
0000
0300
0000
,  // measure 28
1001
0000
0100
0000
,  // measure 29
1001
0000
0010
0000
,  // measure 30
1001
0000
0100
0000
,  // measure 31
0020
0000
0030
0000
,  // measure 32
0110
0000
0001
0000
,  // measure 33
0110
0000
1000
0000
,  // measure 34
0110
0000
0001
0000
,  // measure 35
2000
0000
3000
0000
,  // measure 36
1001
1001
1001
0000
,  // measure 37
0001
0000
0000
0000
,  // measure 38
1001
1001
1001
0000
,  // measure 39
1000
0000
0000
0000
,  // measure 40
0010
0010
0010
0000
,  // measure 41
0100
0100
0100
0000
,  // measure 42
0001
0000
1000
0000
,  // measure 43
1001
0000
0100
0000
,  // measure 44
0010
0000
0100
0000
,  // measure 45
1000
0000
1000
0000
,  // measure 46
0001
0000
0001
0000
,  // measure 47
0010
0000
0010
0000
,  // measure 48
1001
0000
0000
0000
;
