#TITLE:inspiration;
#SUBTITLE:;
#ARTIST:ERI;
#TITLETRANSLIT:;
#SUBTITLETRANSLIT:;
#ARTISTTRANSLIT:;
#CREDIT:;
#BANNER:INSPIRATION.png;
#BACKGROUND:INSPIRATION-bg.png;
#LYRICSPATH:;
#CDTITLE:cdtitle.png;
#MUSIC:INSPIRATION.ogg;
#OFFSET:-0.014;
#SAMPLESTART:50.055;
#SAMPLELENGTH:12.000;
#SELECTABLE:YES;
#BPMS:0.000=151.996;
#STOPS:;
#BGCHANGES:;

//---------------dance-single - ----------------
#NOTES:
     dance-single:
     :
     Hard:
     9:
     0.529,0.514,0.149,0.053,0.345:
0000
0000
0000
0000
,
0000
0000
0000
0000
,
0000
0000
0000
0000
,
0000
0000
0000
0000
,
0000
0000
0000
0000
,
0000
0000
0000
0000
,
0000
0000
0000
0000
,
0000
0000
1001
0000
,
1000
0000
0100
0000
0010
0000
0000
0001
0000
0100
0000
0001
1000
0000
0100
0000
,
1000
0000
0010
0000
0100
0000
0000
0001
0000
0010
0000
0001
1000
0000
0100
0000
,
0010
0000
0001
0000
0100
0000
0000
0001
0000
1000
0000
0001
0100
0000
0010
0000
,
1000
0000
0100
0000
1000
0000
0000
0001
0000
0100
0000
0001
1000
0000
0000
0000
,
0001
0000
0010
0000
0100
0000
0000
1000
0000
0010
0000
1000
0001
0000
0010
0000
,
0001
0000
0100
0000
0010
0000
0000
1000
0000
0100
0000
1000
0001
0000
0010
0000
,
0100
0000
1000
0000
0010
0000
0000
1000
0000
0001
0000
1000
0010
0000
0000
0000
,
0010
0000
1000
0000
0001
0000
0000
0000
1100
0000
0000
1010
0000
0000
1001
0000
,
0010
0001
0100
0000
0010
1000
0100
0000
,
0010
0001
0100
0001
1000
0100
0010
0000
,
0001
1000
0010
0000
0100
0001
0010
0000
,
0100
1000
0010
0100
0001
1000
0100
0000
,
0010
0001
0100
0000
0010
1000
0100
0000
,
0100
1000
0010
0000
0100
0001
0010
0000
,
0100
0000
0000
0100
0000
0000
0100
0000
1000
0000
0000
0001
0000
0000
1000
0000
,
0010
0000
0000
0010
0000
0000
0010
0000
0100
0001
0000
1000
0010
0000
0100
0000
,
0001
0010
0100
0000
1000
0010
0100
0000
,
0001
0100
1000
0100
0001
1000
0010
0000
,
0100
0001
0010
0000
0100
1000
0001
0000
,
1000
0000
0100
0000
0001
0000
0100
0000
0010
0000
0000
1001
0000
0000
0100
0000
,
0010
1000
0010
0000
0100
0001
0100
0000
,
0001
0010
0001
0000
1000
0100
1000
0000
,
0001
0100
0010
0100
0001
0100
0010
0000
,
0110
0000
0000
0101
0000
0000
0010
0000
1001
0000
0000
0000
0000
0000
0000
0000
,
1000
0100
0010
0100
1000
0100
0010
0001
,
1000
0010
0100
0010
1000
0010
0100
0000
,
0010
1000
0000
0010
0000
0000
0100
0000
0001
0010
0000
0001
0000
0000
1000
0000
,
0100
0010
0000
0100
0000
0000
0010
0000
0001
0000
1000
0000
0010
0100
0000
0000
,
0010
1000
0010
0001
0010
1000
0010
0000
,
1000
0100
0001
0100
1000
0100
0001
0000
,
2100
0000
0000
0010
0000
0000
3001
0000
,
0100
0010
1000
0000
0100
0010
0001
0000
,
1000
0010
0100
0010
1000
0100
0010
0000
,
0001
0100
0010
0100
0001
0010
0100
0000
,
1000
0100
0000
1000
0000
0000
0001
0000
0100
0010
0000
0100
0000
0000
0010
0000
,
1000
0001
0000
1000
0000
0000
0100
0000
0010
0000
0001
0000
1000
0010
0000
0000
,
0100
0001
0100
0010
1000
0010
0100
0000
,
0001
0010
0100
1000
0100
0010
0001
0000
,
0012
0100
1000
0013
,
2100
0000
0010
0000
3001
0000
0010
0100
,
0001
0000
0010
0000
0100
0000
0000
1000
0000
0010
0000
1000
0001
0000
0010
0000
,
0001
0000
0100
0000
0010
0000
0000
1000
0000
0100
0000
1000
0001
0000
0010
0000
,
0100
0000
1000
0000
0010
0000
0000
1000
0000
0001
0000
1000
0010
0000
0100
0000
,
0001
0000
0010
0000
0001
0000
0000
1000
0000
0010
0000
1000
0001
0000
0000
0000
,
1000
0000
0100
0000
0010
0000
0000
0001
0000
0100
0000
0001
1000
0000
0100
0000
,
1000
0000
0010
0000
0100
0000
0000
0001
0000
0010
0000
0001
1000
0000
0100
0000
,
0010
0000
0001
0000
0100
0000
0000
0001
0000
1000
0000
0001
0100
0000
0000
0000
,
0100
0000
0001
0000
1000
0000
0000
0000
0011
0000
0000
0101
0000
0000
0010
0000
,
2002
0000
0000
0000
,
3003
0000
0000
0000
;

//---------------dance-single - ----------------
#NOTES:
     dance-single:
     :
     Medium:
     6:
     0.373,0.424,0.117,0.021,0.000:
0000
0000
0000
0000
,
0000
0000
0000
0000
,
0000
0000
0000
0000
,
0000
0000
0000
0000
,
0000
0000
0000
0000
,
0000
0000
0000
0000
,
0000
0000
0000
0000
,
0000
0000
0110
0000
,
1000
0000
0100
0000
0010
0001
0010
0000
,
0100
0000
1000
0000
0010
0100
0010
0000
,
1000
0000
0100
0000
0010
0001
0010
0000
,
0001
0000
0100
0000
0010
1000
0010
0100
,
0001
0000
1000
0000
0100
0010
0100
0000
,
1000
0000
0001
0000
0100
0010
1000
0000
,
0100
0000
0010
0000
0001
0010
0100
0000
,
1000
0010
0100
0001
,
1000
0100
0010
0001
,
0010
0100
1000
0001
,
0100
0010
0100
0001
,
1000
0000
0100
0000
0010
0000
0001
0010
,
0001
0010
0100
1000
,
0010
0100
0010
1000
,
0010
1000
0010
0000
0100
0001
0100
0000
,
0001
0010
0001
0000
0010
0100
1000
0100
,
0010
0001
0100
0010
,
0100
0001
1000
0100
,
0010
0001
1000
0100
,
0010
0110
1001
0110
,
0010
0100
0001
0010
,
0100
0001
0100
0000
1000
0010
1000
0000
,
0001
0000
0100
0000
0010
1000
0100
0010
,
0100
0110
0110
0000
,
1000
0000
0001
0000
0100
0010
0100
0000
,
0001
1000
0100
0010
,
0001
0000
0010
0000
0100
1000
0100
0000
,
0010
0000
0001
0000
0010
0001
0010
0000
,
0001
0100
0001
0000
1000
0010
1000
0000
,
0100
1000
0100
0010
0100
0010
0001
0000
,
0001
0100
0010
1000
,
1100
0100
0010
0001
,
0001
0100
0010
0000
0010
0000
0010
0000
,
0100
0001
0010
0000
0010
0000
0010
0000
,
0100
1000
0100
0000
0010
0001
0010
0000
,
0001
0100
1000
0000
0100
0010
0100
0001
,
0010
0100
1000
0100
,
1010
0001
1000
0010
,
0100
0101
0010
0100
,
1000
0010
1001
0000
,
1000
0000
0100
0000
0010
0001
0010
0000
,
0001
0000
0100
0000
0010
1000
0010
0000
,
1000
0000
0100
0000
0010
0001
0010
0000
,
0001
0000
0100
0000
0010
1000
0100
0010
,
0001
0000
1000
0000
0100
0010
0001
0000
,
0100
0000
0010
0000
0100
0001
0100
0000
,
1000
0000
0100
0000
0010
1000
0100
0000
,
0001
0100
0010
0001
,
2002
0000
0000
0000
,
3003
0000
0000
0000
;

//---------------dance-single - ----------------
#NOTES:
     dance-single:
     :
     Easy:
     4:
     0.249,0.393,0.117,0.064,0.000: // measure 1
0000
0000
0000
0000
,  // measure 2
0000
0000
0000
0000
,  // measure 3
0000
0000
0000
0000
,  // measure 4
0000
0000
0000
0000
,  // measure 5
0000
0000
0000
0000
,  // measure 6
0000
0000
0000
0000
,  // measure 7
0000
0000
0000
0000
,  // measure 8
0000
0000
1001
0000
,  // measure 9
1000
0100
0010
0001
,  // measure 10
0100
0010
1000
0001
,  // measure 11
0010
0001
0010
0100
,  // measure 12
1000
0010
0100
0000
,  // measure 13
0001
0010
0100
1000
,  // measure 14
0100
0010
0001
0100
,  // measure 15
0010
0100
0001
0010
,  // measure 16
0100
0000
0110
0110
,  // measure 17
1000
0000
0100
0010
,  // measure 18
0001
0000
0100
0000
,  // measure 19
0010
0000
1000
0010
,  // measure 20
0100
0000
0001
0000
,  // measure 21
1000
0001
1000
0001
,  // measure 22
0010
0100
0010
0100
,  // measure 23
1000
1001
0001
1001
,  // measure 24
0100
0110
0010
0110
,  // measure 25
1000
0100
0010
0001
,  // measure 26
2000
0000
0000
3000
,  // measure 27
0100
0010
0001
0100
,  // measure 28
0020
0000
0000
0030
,  // measure 29
1000
0000
0100
0010
,  // measure 30
0001
0000
0100
0010
,  // measure 31
1000
0000
0100
0000
,  // measure 32
0010
0000
0000
0000
,  // measure 33
1000
0100
0000
1000
,  // measure 34
0100
0010
0000
0001
,  // measure 35
0100
0000
0010
0000
,  // measure 36
1000
0000
0100
0000
,  // measure 37
1000
0100
0000
0010
,  // measure 38
0001
0100
0000
0010
,  // measure 39
1000
0000
0100
0000
,  // measure 40
0010
0000
0001
0000
,  // measure 41
0100
0001
0100
0000
,  // measure 42
0010
1000
0100
0000
,  // measure 43
0010
0001
1000
0100
,  // measure 44
0010
0001
0100
0000
,  // measure 45
0010
1000
0000
0010
,  // measure 46
0100
0001
0010
0000
,  // measure 47
2002
0000
0000
0000
,  // measure 48
0000
0000
3003
0000
,  // measure 49
1000
0100
0010
0001
,  // measure 50
0100
0010
1000
0001
,  // measure 51
0010
0001
0010
0100
,  // measure 52
1000
0010
0100
0000
,  // measure 53
0001
0010
0100
1000
,  // measure 54
0100
0010
0001
0100
,  // measure 55
0010
0100
0001
0010
,  // measure 56
0100
0000
0110
0110
,  // measure 57
2002
0000
0000
0000
,  // measure 58
3003
0000
0000
0000
;

//---------------dance-solo - ----------------
#NOTES:
     dance-solo:
     :
     Hard:
     9:
     0.531,0.594,0.127,0.000,0.324:
000000
000000
000000
000000
,
000000
000000
000000
000000
,
000000
000000
000000
000000
,
000000
000000
000000
000000
,
000000
000000
000000
000000
,
000000
000000
000000
000000
,
000000
000000
000000
000000
,
000000
000000
010010
000000
,
000001
000000
100000
000000
001000
000000
000000
010000
000000
000010
000000
010000
000100
000000
001000
000000
,
000001
000000
100000
000000
001000
000000
000000
010000
000000
000010
000000
010000
000100
000000
001000
000000
,
000001
000000
000100
000000
001000
000000
000000
100000
000000
001000
000000
100000
000100
000000
001000
000000
,
000001
000000
000100
000000
001000
000000
000000
010000
000000
000010
000000
010000
000100
000000
000000
000000
,
100000
000000
000001
000000
000100
000000
000000
000010
000000
010000
000000
000010
001000
000000
000100
000000
,
100000
000000
000001
000000
000100
000000
000000
000010
000000
010000
000000
000010
001000
000000
000100
000000
,
100000
000000
001000
000000
000100
000000
000000
000001
000000
000100
000000
000001
001000
000000
000100
000000
,
100000
000000
001000
000000
000100
000000
000000
000000
010010
000000
000000
001100
000000
000000
100001
000000
,
000100
100000
001000
000000
100000
000100
001000
000000
,
000001
000100
001000
010000
000010
001000
000001
000000
,
000001
000100
001000
000000
100000
000010
001000
000000
,
000001
001000
000010
010000
001000
100000
001000
000000
,
000100
000001
000100
000000
001000
100000
001000
000000
,
000100
000001
010000
000010
001000
000100
100000
000000
,
100000
000000
001000
100000
000000
001000
100000
000000
000001
000000
000000
000001
000000
000000
000001
000000
,
000100
000000
001000
000100
000000
001000
000100
000000
001000
000000
000000
100000
000000
000000
001000
000000
,
100000
001000
000100
000000
000001
001000
000010
000000
,
100000
001000
000100
001000
010000
001000
000100
000000
,
000001
010000
000010
000000
001000
000100
100000
000000
,
000010
000000
010000
000000
000010
000000
000100
000000
001000
000000
100000
001000
000000
100000
001000
000000
,
000100
000001
001000
000000
000100
100000
001000
000000
,
000100
000001
000100
001000
100000
001000
100000
000000
,
000001
001000
000010
010000
000100
100000
010000
000000
,
000101
000000
000000
100100
000000
000000
000100
000000
110011
000000
000000
000000
000000
000000
000000
000000
,
000100
100000
001000
100000
000010
100000
001000
000100
,
000001
000100
000001
001000
000001
010000
000001
000000
,
100000
000000
000000
001000
000000
000000
100000
000000
000010
000000
000000
001000
000000
000000
000010
000000
,
010000
000000
000000
000001
000000
000000
010000
000000
000001
000000
100000
000000
000001
100000
000001
000000
,
100000
001000
000100
000000
000001
001000
000100
000000
,
100000
001000
100000
001000
000100
000001
000100
000000
,
010010
000000
000100
100000
000000
000001
000100
000000
,
100000
001000
010000
000010
000100
000001
100000
000000
,
001000
000001
000100
000001
010000
000001
000100
001000
,
100000
001000
100000
000100
100000
000010
100000
000000
,
000001
000000
000000
000100
000000
000000
000001
000000
010000
000000
000000
000100
000000
000000
010000
000000
,
000010
000000
000000
100000
000000
000000
000010
000000
100000
000000
000001
000000
100000
000001
100000
000000
,
000001
000100
001000
000000
100000
000100
001000
000000
,
000010
100000
001000
000100
000001
010000
000010
000000
,
100000
001000
100000
000001
,
000100
001000
100001
000000
,
100000
000000
000001
000000
000100
000000
000000
000010
000000
010000
000000
000010
001000
000000
000100
000000
,
100000
000000
000001
000000
000100
000000
000000
000010
000000
010000
000000
000010
001000
000000
000100
000000
,
100000
000000
001000
000000
000100
000000
000000
000001
000000
000100
000000
000001
001000
000000
000100
000000
,
100000
000000
001000
000000
000100
000000
000000
000010
000000
010000
000000
000010
001000
000000
000000
000000
,
000001
000000
100000
000000
001000
000000
000000
010000
000000
000010
000000
010000
000100
000000
001000
000000
,
000001
000000
100000
000000
001000
000000
000000
010000
000000
000010
000000
010000
000100
000000
001000
000000
,
000001
000000
000100
000000
001000
000000
000000
100000
000000
001000
000000
100000
000100
000000
001000
000000
,
000001
000000
000100
000000
001000
000000
000000
000000
100001
000000
000000
001100
000000
000000
001000
000000
,
110011
000000
000000
000000
;

//---------------dance-double - ----------------
#NOTES:
     dance-double:
     :
     Hard:
     8:
     0.520,0.542,0.096,0.021,0.303:
00000000
00000000
00000000
00000000
,
00000000
00000000
00000000
00000000
,
00000000
00000000
00000000
00000000
,
00000000
00000000
00000000
00000000
,
00000000
00000000
00000000
00000000
,
00000000
00000000
00000000
00000000
,
00000000
00000000
00000000
00000000
,
00000000
00000000
00011000
00000000
,
00001000
00000000
00100000
00000000
00010000
00000000
00000000
10000000
00000000
01000000
00000000
10000000
00100000
00000000
01000000
00000000
,
00010000
00000000
00100000
00000000
00001000
00000000
00000000
00010000
00000000
00000100
00000000
00010000
00001000
00000000
00000010
00000000
,
00000001
00000000
00001000
00000000
00000001
00000000
00000000
00000100
00000000
00000010
00000000
00000100
00000001
00000000
00000010
00000000
,
00000100
00000000
00010000
00000000
00001000
00000000
00000000
00100000
00000000
00010000
00000000
00100000
01000000
00000000
00000000
00000000
,
10000000
00000000
01000000
00000000
00100000
00000000
00000000
00010000
00000000
01000000
00000000
00010000
00100000
00000000
00001000
00000000
,
00010000
00000000
00000100
00000000
00001000
00000000
00000000
00000100
00000000
00000010
00000000
00000100
00000010
00000000
00000001
00000000
,
00000100
00000000
00000010
00000000
00001000
00000000
00000000
00000100
00000000
00010000
00000000
00000100
00010000
00000000
00001000
00000000
,
00100000
00000000
00010000
00000000
10000000
00000000
00000000
00000000
10010000
00000000
00000000
01010000
00000000
00000000
00110000
00000000
,
00001000
00100000
00010000
00000000
00000010
00001000
00010000
00000000
,
01000000
10000000
00100000
01000000
00010000
01000000
10000000
00000000
,
01000000
00001000
00010000
00000000
00000010
00000100
00000001
00000000
,
00000010
00000100
00001000
00000100
00000010
00000100
00010000
00000000
,
00000010
00010000
00001000
00000000
00100000
00001000
00010000
00000000
,
00001000
00100000
00010000
01000000
00100000
10000000
01000000
00000000
,
00100000
00000000
00000000
00100000
00000000
00000000
00100000
00000000
00010000
00000000
00000000
10000000
00000000
00000000
00010000
00000000
,
00100000
00000000
00000000
00001000
00000000
00000000
00100000
00000000
00001000
00000000
00010000
00000000
00000100
00001000
00000100
00000000
,
00001000
00000001
00000100
00000000
00000010
00010000
00001000
00000000
,
00100000
00001000
00010000
00001000
00100000
00001000
00010000
00000000
,
00000100
00010000
00001000
00000000
00100000
00010000
01000000
00000000
,
00001000
00010000
00000100
00010000
00001000
00100000
01000000
00000000
,
10000000
00010000
00100000
00000000
00001000
00010000
00000100
00000000
,
00001000
00000001
00000010
00000100
00000010
00000001
00001000
00000000
,
00000010
00000100
00000001
00001000
00000100
00010000
00000100
00001000
,
00000010
00000000
00000000
00000010
00000000
00000000
00000010
00000000
00001001
00000000
00000000
00000000
00000000
00000000
00000000
00000000
,
00000100
00010000
00001000
00010000
00000100
00010000
00001000
00100000
,
00010000
10000000
01000000
00000000
00100000
00010000
10000000
00000000
,
00010000
00000000
00000000
00010000
00000000
00000000
00010000
00000000
00100000
00000000
00000000
00000100
00000000
00000000
00100000
00000000
,
00001000
00000000
00000000
00001000
00000000
00000000
00001000
00000000
00010000
00000000
00000100
00000000
00010000
00001000
00010000
00000000
,
00000100
00100000
00001000
00000000
00010000
10000000
01000000
00000000
,
00100000
00010000
00100000
00010000
10000000
00100000
01000000
00000000
,
00001000
00010000
00000100
00000000
00001000
00000001
00000010
00000000
,
00000100
00010000
00001000
00010000
00001000
00100000
00010000
00000000
,
00100000
00001000
00010000
00001000
00100000
00001000
00010000
00000100
,
00001000
00000001
00000010
00000000
00000100
00001000
00000001
00000000
,
00001000
00000000
00000000
00001000
00000000
00000000
00001000
00000000
00000100
00000000
00000000
00100000
00000000
00000000
00000100
00000000
,
00010000
00000000
00000000
00010000
00000000
00000000
00010000
00000000
00001000
00000000
00100000
00000000
00001000
00010000
00001000
00000000
,
00100000
00000100
00010000
00000000
00001000
00000001
00000010
00000000
,
00000100
00001000
00000100
00001000
00000001
00000100
00000010
00000000
,
00010000
00001000
00100000
00000000
00010000
10000000
01000000
00000000
,
00100000
00001000
00011000
00000000
,
00010000
00000000
00000100
00000000
00001000
00000000
00000000
00000001
00000000
00000010
00000000
00000001
00000100
00000000
00000010
00000000
,
00001000
00000000
00000100
00000000
00010000
00000000
00000000
00001000
00000000
00100000
00000000
00001000
00010000
00000000
01000000
00000000
,
10000000
00000000
00010000
00000000
10000000
00000000
00000000
00100000
00000000
01000000
00000000
00100000
10000000
00000000
01000000
00000000
,
00100000
00000000
00001000
00000000
00010000
00000000
00000000
00000100
00000000
00001000
00000000
00000100
00000010
00000000
00000000
00000000
,
00000001
00000000
00000010
00000000
00000100
00000000
00000000
00001000
00000000
00000010
00000000
00001000
00000100
00000000
00010000
00000000
,
00001000
00000000
00100000
00000000
00010000
00000000
00000000
00100000
00000000
01000000
00000000
00100000
01000000
00000000
10000000
00000000
,
00100000
00000000
01000000
00000000
00010000
00000000
00000000
00100000
00000000
00001000
00000000
00100000
00001000
00000000
00010000
00000000
,
00000100
00000000
00001000
00000000
00000001
00000000
00000000
00000000
00001001
00000000
00000000
00001010
00000000
00000000
00000100
00000000
,
00022000
00000000
00000000
00033000
;
