#TITLE:in my heart;
#SUBTITLE:(ovrar euro mix);
#ARTIST:TSUKASA;
#TITLETRANSLIT:;
#SUBTITLETRANSLIT:;
#ARTISTTRANSLIT:;
#CREDIT:;
#BANNER:IN MY HEART (Ovrar Euro Mix).png;
#BACKGROUND:IN MY HEART (Ovrar Euro Mix)-bg.png;
#LYRICSPATH:;
#CDTITLE:VIP MEGA EURO STAR BEST.png;
#MUSIC:IN MY HEART (Ovrar Euro Mix).mp3;
#OFFSET:-0.663;
#SAMPLESTART:54.579;
#SAMPLELENGTH:12.000;
#SELECTABLE:YES;
#BPMS:0.000=145.000;
#STOPS:;
#BGCHANGES:;

//---------------dance-single - ----------------
#NOTES:
     dance-single:
     :
     Hard:
     7:
     0.454,0.471,0.278,0.060,0.012:
0000
0000
0000
0000
,
0000
0000
0000
0000
,
0000
0000
0000
0000
,
0000
0000
0000
0000
,
1000
0010
0100
0001
,
1000
0010
0100
0001
,
0000
1100
0000
0011
,
1000
0000
0000
0100
0000
0000
0010
0000
0001
0000
0000
0000
0000
0000
0000
0000
,
0001
0000
0000
0000
,
1001
0100
0001
1000
,
0001
0100
0010
0100
0001
0100
0010
0000
,
1001
0100
0010
0001
,
1000
0100
0010
0100
1000
0100
0010
0000
,
1001
0100
0010
1000
,
0001
0100
0010
1000
0001
0010
0100
0000
,
1001
0100
0010
0001
,
1000
0010
0100
0001
1000
0100
0001
0000
,
1000
0010
0100
0002
0000
0010
0003
0010
,
0001
0100
0010
2000
0000
0001
3000
0001
,
0010
0100
0010
0002
0000
1000
0003
1000
,
0001
0010
0001
0000
1000
0100
0010
0001
,
1000
0010
1000
0020
0000
0100
0030
0100
,
0001
0010
0001
0020
0000
0001
0030
0001
,
1000
0010
1000
0001
0000
1000
0100
0010
,
0001
0000
0000
0000
1000
0010
0100
0001
,
1000
0100
1000
0100
0010
0001
0100
0001
,
0100
0001
1000
0010
1000
0000
0101
0000
,
1000
0010
0100
0010
1000
0001
0010
0001
,
1000
0100
0010
0001
,
1000
0001
0010
0100
0010
0001
1000
0010
,
0100
0001
1000
0100
1000
0000
0001
0000
,
1000
0000
0100
0000
0010
0001
1000
0000
,
0001
0000
0000
0100
0000
0000
0010
0000
1000
0000
0000
0000
0000
0000
0000
0000
,
0010
1100
0101
0010
,
0001
1100
0101
0010
,
0001
1100
0010
0101
,
0010
1000
0100
0000
0010
0001
0100
0000
,
0001
1010
0011
0100
,
1000
1010
0011
0100
,
1000
0011
0100
1010
,
1000
0100
0010
0000
0001
0000
0000
0000
,
1000
0010
0100
0010
1000
0010
0100
0000
,
0101
0010
0100
1000
,
0001
0010
1000
0010
0001
0010
1000
0000
,
0011
1000
0001
0100
,
0010
1000
0001
1000
0010
1000
0001
0000
,
1100
0010
0001
0100
,
0010
1000
0100
1000
0001
1000
0010
0000
,
1001
0010
0100
1000
;

//---------------dance-single - ----------------
#NOTES:
     dance-single:
     :
     Medium:
     4:
     0.345,0.442,0.145,0.314,0.000:
0000
0000
0000
0000
,
0000
0000
0000
0000
,
0000
0000
0000
0000
,
0000
0000
0000
0000
,
1000
0100
1000
0100
,
1000
0001
1000
0001
,
1000
0001
1000
0001
,
0100
0000
0010
0000
,
1000
0000
0000
0000
,
1000
0001
1000
0001
,
1000
0010
1000
0010
,
1000
0001
1000
0001
,
0010
0001
0100
0001
,
1000
0010
1000
0010
,
1000
0001
1000
0001
,
0010
0001
0010
0001
,
0100
0001
0010
0001
,
1000
0001
1000
0001
,
0100
0010
0100
0010
,
2000
3200
0320
0032
,
2003
3002
0203
0300
,
0010
1000
0001
0100
,
0010
1000
0100
0010
,
0002
2003
3020
0230
,
0302
0003
0000
0100
,
1000
0100
0010
0000
,
0001
0100
0010
0000
,
1001
0100
0020
0031
,
1001
0100
0020
1030
,
0100
0010
0001
0000
,
1000
0010
0100
0000
,
1001
0100
1001
0100
,
0010
0000
0000
0000
,
0001
1200
0310
0001
,
0100
2010
3100
0010
,
0001
0120
1030
0120
,
0031
0100
0010
0000
,
1000
0120
0031
0100
,
0010
1200
0310
0001
,
0100
2010
3100
0012
,
0103
0000
0010
0000
,
1000
0100
0010
0001
,
0100
0010
1000
0001
,
0100
0010
1000
0001
,
1000
0100
1000
0100
,
1000
0010
0100
0001
,
0010
0100
1000
0001
,
0100
0010
1000
0002
,
0203
0320
2030
3001
;

//---------------dance-single - ----------------
#NOTES:
     dance-single:
     :
     Easy:
     2:
     0.155,0.236,0.012,0.000,0.000: // measure 1
0000
0000
0000
0000
,  // measure 2
0000
0000
0000
0000
,  // measure 3
0000
0000
0000
0000
,  // measure 4
0000
0000
0000
0000
,  // measure 5
1000
0000
0000
0000
,  // measure 6
1000
0000
0000
0000
,  // measure 7
0000
0001
0000
0001
,  // measure 8
1000
0000
0001
0000
,  // measure 9
1000
0000
0000
0000
,  // measure 10
1000
0000
0000
0000
,  // measure 11
0001
0000
1000
0000
,  // measure 12
0001
0000
0000
0000
,  // measure 13
0010
0000
0100
0000
,  // measure 14
1000
0000
0000
0000
,  // measure 15
0001
0000
1000
0000
,  // measure 16
0001
0000
0000
0000
,  // measure 17
0100
0000
0001
1000
,  // measure 18
0001
0000
0000
0000
,  // measure 19
1000
0000
0000
0000
,  // measure 20
0100
0000
0000
0000
,  // measure 21
0010
0000
0000
0000
,  // measure 22
0001
0000
0000
0000
,  // measure 23
1000
0000
0000
0000
,  // measure 24
0010
0000
0000
0000
,  // measure 25
0100
0000
0000
0000
,  // measure 26
0001
0000
0001
0000
,  // measure 27
0010
0000
0010
0000
,  // measure 28
0100
0000
0100
0000
,  // measure 29
1000
1000
1000
1000
,  // measure 30
0001
0000
0001
0000
,  // measure 31
0100
0000
0100
0000
,  // measure 32
0010
0000
0000
0000
,  // measure 33
1001
0000
0000
0000
,  // measure 34
1000
0001
0100
0000
,  // measure 35
1000
0001
0100
0000
,  // measure 36
1000
0001
1000
0100
,  // measure 37
0010
0001
1000
0000
,  // measure 38
1000
0001
0100
0000
,  // measure 39
1000
0001
0100
0000
,  // measure 40
1000
0001
1000
0100
,  // measure 41
1000
0000
0001
0000
,  // measure 42
1000
0000
0000
0000
,  // measure 43
0001
1000
0001
1000
,  // measure 44
0001
0000
0000
0000
,  // measure 45
0100
0010
0100
0010
,  // measure 46
1000
0000
0000
0000
,  // measure 47
0001
0010
0001
0010
,  // measure 48
0100
0000
0000
0000
,  // measure 49
1000
0001
1000
0001
;
