#TITLE:footprints;
#SUBTITLE:;
#ARTIST:T.O.;
#TITLETRANSLIT:;
#SUBTITLETRANSLIT:;
#ARTISTTRANSLIT:;
#CREDIT:;
#BANNER:footprints.png;
#BACKGROUND:footprints-bg.png;
#LYRICSPATH:;
#CDTITLE:PIU Zero.png;
#MUSIC:footprints.mp3;
#OFFSET:-3.997;
#SAMPLESTART:58.640;
#SAMPLELENGTH:12.000;
#SELECTABLE:YES;
#BPMS:0.000=134.994;
#STOPS:;
#BGCHANGES:0.000=footprints.avi=1.000=1=0=0,
219.000=footprints-bg.png=1.000=1=0=0,
99999=-nosongbg-=1.000=0=0=0 // don't automatically add -songbackground-
;

//---------------dance-single - Beginner----------------
#NOTES:
     dance-single:
     Beginner:
     Beginner:
     1:
     0.148,0.184,0.058,0.000,0.000:
1001
0000
1001
0000
,
0000
0000
0000
0000
,
0110
0000
0110
0001
,
0000
0000
0000
1000
,
1000
1000
0000
0010
,
0000
0010
0000
0001
,
0001
0001
0000
0100
,
0000
0100
0000
1000
,
0000
0001
0000
0010
,
0000
0100
0000
1000
,
0000
0001
0000
1000
,
0000
0001
0001
0001
,
0000
0000
0000
0000
,
0000
0000
0000
1000
,
0000
0001
0000
0010
,
0000
0100
0000
1000
,
0000
0000
0000
0001
,
0000
1000
0000
0010
,
0000
0000
0000
0100
,
0000
0000
0000
0001
,
0000
1000
0000
0001
,
0000
0000
0000
0010
,
0000
0010
0010
0010
,
0000
0010
0000
1000
,
0000
1000
1000
1000
,
0000
1000
0000
0100
,
0000
0100
0100
0100
,
0000
0100
0000
0001
,
0000
0001
0001
0001
,
0000
0001
0000
1001
,
0000
1001
0000
0001
,
0000
0001
0000
1000
,
1000
1000
0000
0010
,
0000
0010
0000
0100
,
0100
0100
0000
0001
,
0000
1000
0000
0001
,
0000
0010
0000
0100
,
0000
0000
0000
1000
,
0000
0001
0000
1000
,
0000
0000
0000
0001
,
0001
0001
0000
0010
,
0000
0000
0000
0100
,
0100
0100
0000
1000
,
0000
0001
0000
1000
,
0000
0001
0000
0010
,
0000
0100
0000
0010
,
0000
0010
0010
0010
,
0000
0000
0000
0000
,
0000
0001
0001
0001
,
0000
0000
0000
0000
,
0000
0000
0000
1000
,
0000
0000
0000
0000
,
0000
0000
0001
0001
,
0000
0000
0000
0000
,
0000
0000
1000
1000
;

//---------------dance-single - Basic----------------
#NOTES:
     dance-single:
     Basic:
     Easy:
     3:
     0.252,0.341,0.105,0.153,0.000:
1001
0000
1001
0010
,
0010
0100
0100
0000
,
1001
0000
1001
0100
,
0000
0000
0000
1000
,
0001
1000
0000
0010
,
0100
0010
0000
0001
,
1000
0001
0000
0100
,
0010
0100
0000
1000
,
1000
0100
0100
0010
,
0010
0001
0001
0002
,
0000
1003
0000
1000
,
1000
0100
0100
0020
,
0032
0203
0320
2030
,
3200
0320
0000
0130
,
0000
1000
0000
0001
,
1000
0001
0000
1001
,
0000
0010
0100
1000
,
0000
0001
0000
0100
,
0010
1000
0100
1000
,
0001
0100
0000
0001
,
1000
0100
0010
0200
,
0000
0000
0000
1300
,
0000
0001
1000
0100
,
0000
0010
0000
0001
,
0000
1000
0100
1000
,
0000
0010
0000
0100
,
0010
1000
0000
0001
,
0010
0100
0000
1000
,
1000
0001
0001
1001
,
0000
1001
0000
0110
,
0000
0110
0000
0010
,
1000
0100
0010
0100
,
1000
0001
0100
0001
,
1000
0100
1000
0001
,
1000
0200
0000
1300
,
0001
1000
0010
1000
,
0100
1000
0001
1000
,
0000
0001
0000
0010
,
0010
0100
0100
1000
,
0001
0100
0010
1000
,
1000
0001
0001
1001
,
0001
1000
0001
0010
,
0100
1001
0000
0001
,
0001
1000
1000
0100
,
0100
0010
0100
2000
,
0000
3002
0000
0103
,
0010
1000
0100
2000
,
0000
0000
0000
0000
,
0000
3001
0001
0002
,
0000
0000
0000
0000
,
0000
0000
0000
2003
,
0000
0000
0000
0000
,
0000
0000
3100
0200
,
0000
0000
0000
1300
,
0000
1000
0001
1000
;

//---------------dance-single - Trick----------------
#NOTES:
     dance-single:
     Trick:
     Medium:
     5:
     0.342,0.341,0.115,0.058,0.000:
1001
0000
0000
0000
1100
0000
0001
1000
,
0001
0000
0010
0100
0010
0000
0000
0000
,
1001
0000
0101
0002
,
0000
0000
0000
1003
,
0100
0000
1000
0100
1000
0000
0001
0000
,
0100
0010
1000
0100
,
1000
0000
0001
0100
0001
1000
0100
0000
,
0010
0000
0100
1000
0001
0000
0100
0000
,
0001
1000
0100
0000
0010
0100
1000
0000
,
0010
0100
0001
0000
1000
0000
0001
0000
,
1000
0200
0000
0000
0000
0000
1300
0000
,
0001
0000
1000
0000
0100
0000
0010
0100
,
1000
0000
0001
0100
0010
0000
1000
0100
,
0010
0100
1000
0000
0001
0000
0100
0000
,
0010
1000
0100
0000
0010
0100
1000
0000
,
0001
1000
0100
0000
1100
0000
1000
0000
,
0001
0100
0001
0000
1000
0000
0001
0000
,
0000
0010
0001
0000
0100
0000
0001
0000
,
1000
0100
1000
0000
1001
0000
0010
0000
,
0001
0100
0010
0000
1000
0000
0100
0000
,
1000
0001
0100
0000
0001
0010
0100
0000
,
1000
0100
1000
0001
,
0000
0000
0100
0000
0010
1000
0100
0000
,
0010
0100
1000
0000
1001
0000
0001
0000
,
0000
0000
0010
0000
0100
0001
0010
0000
,
0010
0100
1000
0000
0000
0000
1001
0000
,
1000
0001
1000
0000
1001
0000
0001
0000
,
0010
0100
1000
0000
1001
0000
1000
0000
,
0100
0010
0100
0000
1000
0010
0100
0000
,
0010
1000
0100
0000
0010
0000
0001
0000
,
0100
0001
0100
0000
1000
0000
0100
0000
,
1000
0100
0001
0000
0010
0000
0100
1000
,
0001
1001
1001
0001
,
0010
0100
1000
0000
0010
1000
0100
0000
,
0010
0001
0100
0001
,
1000
0100
0010
0000
0010
0100
1000
0000
,
0001
0100
0010
0000
0010
0100
0001
0000
,
0010
0001
0100
0000
0001
1000
0100
0000
,
1000
0001
0100
0001
,
0010
0100
1000
0000
1000
0010
0100
0000
,
0010
1000
0100
0010
,
0001
1000
0100
0000
1000
0100
1000
0000
,
0001
1000
0000
0100
0010
0000
0100
0000
,
1000
0001
0100
0000
0001
1000
0100
0000
,
0010
0100
1000
0000
0001
0000
1000
0000
,
0000
0100
1000
0000
0000
0000
0001
0000
,
1000
0100
0010
0200
,
0000
0000
0000
0000
,
0000
1000
1000
2300
,
0000
0000
0000
0000
,
0000
0000
0000
3002
,
0000
0000
0000
0000
,
0000
0000
0103
0200
,
0000
0000
0000
0000
,
0000
0000
0000
0300
;

//---------------dance-single - Maniac----------------
#NOTES:
     dance-single:
     Maniac:
     Hard:
     7:
     0.444,0.446,0.153,0.048,0.000:
1001
0000
1100
0000
1001
0000
0001
0100
,
0001
0000
0010
0100
1000
0000
1001
0000
,
0101
1001
1100
0020
,
0000
0000
0100
0100
0130
0000
1000
0100
,
0010
0100
1000
0001
0100
0000
0001
0010
,
0100
1000
0010
0000
1010
0000
1000
0100
,
0010
0100
1000
0001
0100
0001
0010
0000
,
0001
0100
0000
0001
1000
0000
0100
0010
,
0100
1000
0001
0100
0010
1000
0100
0010
,
0001
0100
0001
0010
1000
0010
0001
0100
,
1000
0100
0001
0010
0001
0100
0001
0000
,
1000
0000
0100
0000
0010
0000
0100
1000
,
0001
0100
0001
0010
0001
0100
0010
1000
,
0100
0010
0100
1000
0001
0000
0100
0000
,
0001
1000
0100
0000
0010
0000
0100
0000
,
1000
0001
0100
0000
0101
0000
0001
0000
,
0010
0100
1000
0000
1010
0000
0010
0000
,
1000
0100
0010
0000
0110
0000
0010
0001
,
0100
0010
1000
0000
0100
0000
1000
0000
,
0001
0100
0001
0000
1000
0000
0001
1000
,
0100
0010
0100
1000
0010
0100
0010
0001
,
0010
1000
0100
0010
0001
0000
0100
0000
,
0001
1000
0100
0010
0100
1000
0001
0000
,
1000
0100
1000
0000
1001
0000
0001
0000
,
0100
0001
0010
0100
1000
0010
0100
0000
,
0010
0100
0010
0000
1000
0000
0100
0000
,
0010
0001
0100
0000
1001
0000
0100
0000
,
0001
0100
0001
0000
0010
0000
0001
0100
,
0010
1000
0100
0010
0001
0100
0010
0000
,
1000
0100
0010
0000
0010
0100
1000
0000
,
0001
0100
0001
0000
1000
0000
0100
0010
,
0100
1000
0001
0100
0001
0010
0001
0000
,
0101
0000
1001
0000
1100
0000
0010
0100
,
1000
0010
0100
0010
0001
0010
1000
0100
,
0010
0001
0100
0001
0100
0000
0001
1000
,
0100
0010
0100
0000
1000
0001
0100
0001
,
0010
0001
0100
0000
0001
1000
0100
0000
,
0010
0100
1000
0000
0010
0100
0001
0000
,
1000
0000
0001
0000
1000
0000
0001
1000
,
0100
0010
0100
0010
0001
0010
0001
0100
,
0001
1000
0100
1000
0010
1000
0100
0010
,
0001
0100
0001
1000
0100
1000
0001
0000
,
0100
0001
0000
1000
0100
0000
0010
0100
,
1000
0001
0100
0001
0100
0001
0010
0100
,
1000
0010
0100
0010
0001
0010
1000
0100
,
0010
0100
1000
0000
0001
1000
0001
0000
,
0100
0001
1000
0200
,
0000
0000
0000
0000
,
0000
0000
1000
2300
,
0000
0000
0000
0000
0000
0000
0000
0100
,
0000
0001
0100
0000
0001
0000
3002
0000
,
0000
0000
0000
0000
,
0000
0000
1003
2000
,
0000
0000
0000
0000
,
0000
0000
0000
3010
;

//---------------dance-single - S-Maniac----------------
#NOTES:
     dance-single:
     S-Maniac:
     Challenge:
     9:
     0.516,0.551,0.086,0.211,0.249: // measure 1
1001
0000
0000
0000
0000
0000
0000
0000
0101
0000
0000
0000
0001
1000
0100
1000
,  // measure 2
0100
0000
0000
0000
1000
0001
0100
0001
0010
0000
0000
0000
0000
0000
0000
0000
,  // measure 3
1001
0000
1100
2002
,  // measure 4
0000
0000
0000
0000
3003
0000
1001
0010
,  // measure 5
0100
0000
1000
0001
0100
0000
0001
0000
0010
0000
0100
1000
0010
0000
0100
0000
,  // measure 6
0010
0000
1000
0000
0100
0010
0100
1000
0001
0000
0100
0000
0010
0000
1000
0000
,  // measure 7
0100
0000
0010
0000
0100
0000
1000
0000
0001
0000
0100
0000
0001
0000
1000
0100
,  // measure 8
0000
0010
0100
0000
0000
0000
1000
0100
1000
0000
0000
0000
0001
0000
0010
0000
,  // measure 9
0100
1000
0001
0100
0010
1000
0100
0010
,  // measure 10
0001
0100
0001
1000
0100
0010
0100
0000
,  // measure 11
1000
0000
0002
0000
0000
0000
0000
0000
0000
0000
0000
0000
1003
0000
0100
1000
,  // measure 12
0000
1000
0100
0000
1000
0000
0001
0100
0001
0010
0100
1000
0001
0000
0000
1000
,  // measure 13
0000
0000
0001
0000
0000
0000
0100
0000
0010
0000
0000
0000
1000
0000
0000
0100
,  // measure 14
0000
0000
0010
0000
0100
1000
0100
1000
0001
0000
0000
0000
0010
0000
0000
0100
,  // measure 15
0000
0000
1000
0000
0001
0000
0000
0100
0000
0000
0010
0000
1000
0000
0000
0100
,  // measure 16
0000
0000
0010
0000
0100
0000
0000
0000
0000
0000
1000
0001
1000
0000
0000
0000
,  // measure 17
0000
0000
0000
0000
0010
0000
0000
0100
0000
0000
1000
0000
0001
0000
0000
0000
,  // measure 18
0000
0100
0001
0000
0000
0000
1000
0001
,  // measure 19
0100
0010
1000
0100
0010
0001
0100
0010
,  // measure 20
1000
0100
0010
0001
0100
0000
0001
1000
,  // measure 21
0100
0010
0100
1000
0010
0001
0010
1000
,  // measure 22
0100
0000
0010
0000
0001
1000
0001
1000
0100
0000
0000
0000
0010
0000
0001
0000
,  // measure 23
0100
0000
0001
0000
1000
0000
0100
1000
0100
0000
0010
0000
0001
0000
0100
0000
,  // measure 24
0010
0000
1000
0000
0100
1000
0100
0010
0100
0000
0000
0000
1000
0000
0001
0000
,  // measure 25
0100
0000
0010
0000
1000
0000
0100
0000
0010
0100
0010
0000
0001
0000
0100
0000
,  // measure 26
0001
0000
1000
0000
0100
1000
0100
0010
0100
0000
0000
0000
1000
0000
0001
0000
,  // measure 27
0100
0000
0001
0000
0010
0000
0001
0100
0001
0000
0000
0000
1000
0000
0100
0000
,  // measure 28
0010
0000
0100
0000
1000
0000
0001
0100
0001
0000
0000
0000
0010
0000
0100
0000
,  // measure 29
1000
0010
0100
0010
0001
0010
2000
0000
,  // measure 30
0000
0100
3200
0000
0000
0000
0010
0000
,  // measure 31
0000
0010
0310
0000
1001
0000
0100
0001
,  // measure 32
0010
0000
0100
1000
0100
0000
1000
0000
0001
0000
0100
0000
0010
0000
1000
0000
,  // measure 33
0100
0000
0010
0000
0100
1000
0001
0100
0010
0000
1000
0000
0100
0000
0010
0000
,  // measure 34
0001
0000
0100
0001
0100
0000
0001
0000
1000
0000
0100
0000
0010
0000
0100
1000
,  // measure 35
0000
0001
1000
0000
0000
0000
0001
1000
0001
0000
0000
0000
0100
0000
0001
0000
,  // measure 36
0010
0001
0100
0010
1000
0100
0010
0100
,  // measure 37
1000
0001
0100
0001
0010
0100
2000
0000
,  // measure 38
0001
3002
0000
0000
0000
0100
0203
0000
,  // measure 39
0320
0000
2030
0000
3200
0000
0310
0001
,  // measure 40
0100
0000
0010
1000
0100
0000
0010
0000
0001
0000
0100
0000
0001
0000
1000
0000
,  // measure 41
0100
0000
0010
0000
0100
1000
0001
0100
0010
0000
1000
0000
0001
0000
0010
0000
,  // measure 42
0001
0000
0100
0000
0001
0000
1000
0000
0100
0000
0010
0000
0001
0000
0100
0001
,  // measure 43
0000
0001
0100
0000
0000
0000
1000
0100
1000
0000
0000
0000
0010
0000
0100
0000
,  // measure 44
1000
0001
0100
0010
1000
0001
0100
0001
,  // measure 45
0010
0100
1000
0001
0100
0001
0020
0000
,  // measure 46
0000
0001
0032
0000
0000
0000
0203
0000
,  // measure 47
0320
2030
3200
0020
,  // measure 48
0000
0000
0000
0000
,  // measure 49
0000
0330
1001
2000
,  // measure 50
0000
0000
0000
0000
0000
0000
3000
0001
,  // measure 51
0000
0100
0000
0000
0001
0000
0010
0100
1000
0100
0010
0001
0020
0000
0000
0000
,  // measure 52
0000
0000
0000
0000
,  // measure 53
0000
0000
0031
2002
,  // measure 54
0000
0000
0000
0000
,  // measure 55
0000
0000
0000
3003
;
