#TITLE:everytime we touch;
#SUBTITLE:(Kenny Hayes Sunshine Funk Remix);
#ARTIST:CASCADA;
#TITLETRANSLIT:;
#SUBTITLETRANSLIT:;
#ARTISTTRANSLIT:;
#CREDIT:;
#BANNER:EVERYTIME WE TOUCH (Kenny Hayes Sunshine Funk Remix).png;
#BACKGROUND:EVERYTIME WE TOUCH (Kenny Hayes Sunshine Funk Remix)-bg.png;
#LYRICSPATH:;
#CDTITLE:ULTIMATE VOCAL COLLECTION.png;
#MUSIC:EVERYTIME WE TOUCH (Kenny Hayes Sunshine Funk Remix).mp3;
#OFFSET:-0.037;
#SAMPLESTART:43.835;
#SAMPLELENGTH:16.000;
#SELECTABLE:YES;
#BPMS:0.000=128.000,224.000=64.000;
#STOPS:;
#BGCHANGES:;

//---------------dance-single - ----------------
#NOTES:
     dance-single:
     :
     Hard:
     7:
     0.352,0.390,0.057,0.065,0.008:
0000
0000
0000
0000
,
0000
0000
0000
0000
,
0000
0000
0000
0000
,
0000
0000
0000
0000
,
0000
0000
0000
0000
,
0000
0000
0000
0000
,
0000
0000
0000
0000
,
0000
0000
0000
0000
,
1000
0001
0100
1000
0000
0100
0001
0000
,
0010
1000
0010
0001
0000
0010
0100
0000
,
1000
0010
0100
0001
0000
1000
0100
0000
,
1000
0010
0100
0001
,
1000
0001
0100
0010
0000
1000
0001
0000
,
0010
0100
0001
0100
0000
1000
0010
0000
,
0100
0001
1000
0010
,
0001
0000
0000
0000
,
1000
0010
0100
0000
0001
0010
0100
0000
,
1000
1010
0001
0101
,
0010
1000
0100
0000
0010
0001
0100
0000
,
0010
1000
0001
0000
,
1000
0100
0001
0000
1000
0100
0001
0000
,
1000
0100
0001
0100
1000
0010
1000
0100
,
0010
0001
0100
0010
,
1000
0000
0000
0000
0001
0010
0100
1000
,
0001
0100
0001
1000
0100
0010
0001
0100
,
0001
1000
0100
0010
0001
0000
0100
0000
,
0010
1000
0001
0100
0010
1000
0100
1000
,
0001
0100
0010
1000
0100
0000
1000
0000
,
0002
0013
2000
3010
,
1000
0001
1000
0001
1000
0000
0000
0000
,
1001
0000
1000
0010
0000
0001
0000
0100
,
0000
0000
0000
0000
1000
0100
0001
0100
,
1000
0010
0001
0010
1000
0100
0010
0100
,
1000
0010
0001
0010
1000
0000
0001
0000
,
0010
1000
0010
0100
0010
0001
0010
0100
,
0000
0001
1000
0000
0001
1000
0010
0000
,
2000
3100
0002
0013
,
1000
0001
1000
0001
1000
0000
0000
0000
,
1001
0000
0001
0010
0000
1000
0000
0100
,
0000
0000
0000
0000
,
1000
0010
0100
0010
1000
0010
0200
0000
,
0301
0010
0100
0010
0001
0010
0100
0000
,
1000
0001
0100
0000
0010
1000
0100
0000
,
0010
0001
1000
0100
,
0010
0001
0100
0100
0001
0010
0020
0000
,
0031
1000
1000
0010
0100
0100
0001
0000
,
1000
0000
0100
0000
0010
0000
0001
2000
,
0000
0100
0010
3100
,
1000
0100
0010
0001
0100
0010
1000
0000
,
0100
0010
0001
0100
0010
1000
0001
0000
,
0010
0100
1000
0010
0100
0001
1000
0000
,
0001
0000
0100
0000
0010
1000
0001
0000
,
1000
0100
0001
0000
1000
0100
0001
0000
,
1000
0010
0100
0000
0001
0010
1000
0000
,
0001
0010
1000
0000
0001
0100
0010
1000
,
0002
0000
0100
0000
0010
0010
0013
0000
,
1001
0000
0100
0010
1000
0000
0100
0100
,
0100
0000
0010
0001
0100
0000
0000
0000
,
1000
0000
0001
0000
1000
0000
0000
0000
0001
0100
0010
1000
0001
0000
0000
0000
,
1001
0010
0100
0001
1000
0000
0000
0000
,
1001
0000
0000
0000
;

//---------------dance-single - ----------------
#NOTES:
     dance-single:
     :
     Medium:
     5:
     0.252,0.342,0.008,0.008,0.000:
0000
0000
0000
0000
,
0000
0000
0000
0000
,
0000
0000
0000
0000
,
0000
0000
0000
0000
,
0000
0000
0000
0000
,
0000
0000
0000
0000
,
0000
0000
0000
0000
,
0000
0000
0000
0000
,
1000
0000
0000
1000
0000
0000
0100
0000
,
0010
0000
0000
0010
0000
0000
0001
0000
,
0100
0000
0000
0100
0000
0000
0010
0000
,
1000
0000
0000
0001
,
0010
0000
0000
0010
0000
0000
0100
0000
,
1000
0000
0000
1000
0000
0000
0010
0000
,
0000
0100
0000
0001
,
1000
0000
0000
0001
,
0010
0000
0000
0010
0000
0000
0100
0000
,
0100
0000
0000
0100
0000
0000
1000
0000
,
1000
0000
0000
1000
0000
0000
0010
0000
,
0100
0000
0000
0001
,
0010
0000
0000
0001
0000
0000
0100
0000
,
0010
0000
0000
1000
0000
0000
0001
0000
,
0000
0010
0000
0000
,
0000
0000
0000
0000
1000
0100
1000
0100
,
1000
0001
0100
0010
,
1000
0000
0001
0000
0010
0100
0010
0100
,
0010
0001
0100
0010
,
1000
0000
0100
0000
1000
0100
1000
0100
,
0010
0001
0010
0100
,
1000
0010
1000
0000
0001
0000
0100
0000
,
0001
0010
0001
0010
,
0100
0100
1000
1000
,
0010
0000
0100
0000
0001
0100
0001
0000
,
0010
0000
0100
0000
0010
0100
0010
0000
,
0001
0000
0100
0000
0010
1000
0100
0000
,
0010
0000
0100
0000
0010
0001
0010
0000
,
0001
0100
0010
0000
,
1000
0100
0010
0001
0000
0000
0000
0000
,
1000
0000
0001
0000
1000
0001
1000
0000
,
0002
0000
0010
0013
,
0001
0000
0100
0000
0001
0100
0001
0000
,
0010
0000
0100
0000
1000
0010
1000
0000
,
0010
1000
0010
0000
0100
0001
0100
0000
,
0001
0100
0001
0100
0010
1000
0010
0000
,
1000
0000
0100
0000
1000
0100
1000
0000
,
0100
0000
0010
0000
0001
0010
0001
0000
,
0100
0000
0001
0000
0100
0000
0010
1000
,
0010
0000
1000
0000
0001
0000
1000
0001
,
1000
0100
0010
0001
,
0010
0000
0100
0000
1000
0000
0010
1000
,
0010
0100
0001
0010
,
0001
0000
1000
0000
0100
0000
1000
0010
,
1000
0000
0001
0000
0100
0000
0001
0010
,
0001
0000
1000
0000
0001
0000
1000
0010
,
1000
0000
0001
0100
0001
0010
0000
0010
,
0000
0001
1000
0000
0001
1000
0001
0000
,
1000
1000
0100
0000
,
1000
0000
0001
0000
0100
0000
0001
0010
,
0001
0000
1000
0000
0001
0010
0001
0000
,
1000
1000
0001
0001
,
1001
0000
0000
0000
;

//---------------dance-single - ----------------
#NOTES:
     dance-single:
     :
     Easy:
     4:
     0.271,0.439,0.301,0.146,0.000: // measure 1
0000
0000
0000
0000
,  // measure 2
0000
0000
0000
0000
,  // measure 3
0000
0000
0000
0000
,  // measure 4
0000
0000
0000
0000
,  // measure 5
0000
0000
0000
0000
,  // measure 6
0000
0000
0000
0000
,  // measure 7
0000
0000
0000
0000
,  // measure 8
0000
0000
0000
0000
,  // measure 9
1000
1000
0001
0001
,  // measure 10
1000
1000
0001
0001
,  // measure 11
1000
1000
0001
1000
,  // measure 12
0001
0100
0010
1000
,  // measure 13
0001
0001
1000
1000
,  // measure 14
0001
0001
1000
1000
,  // measure 15
0001
1000
0001
1000
,  // measure 16
0001
0000
0000
0000
,  // measure 17
0010
1000
0001
0100
,  // measure 18
0001
0010
0100
1000
,  // measure 19
0010
1000
0100
0001
,  // measure 20
1000
0010
0100
0000
,  // measure 21
0001
1000
0100
1000
,  // measure 22
0010
0100
0001
1000
,  // measure 23
0001
1000
0000
0001
,  // measure 24
1000
0000
0000
0000
,  // measure 25
0110
0110
1001
1001
,  // measure 26
0110
0110
1001
1001
,  // measure 27
0110
0110
1001
1001
,  // measure 28
0110
0110
1001
0000
,  // measure 29
1001
0100
1001
0000
,  // measure 30
0010
0100
0001
0000
,  // measure 31
1000
0100
0010
0001
,  // measure 32
1000
0000
0110
0110
,  // measure 33
1001
1001
0110
0110
,  // measure 34
1001
1001
0110
0110
,  // measure 35
1001
1001
0110
0110
,  // measure 36
1001
0000
1001
0100
,  // measure 37
1001
0010
1001
0000
,  // measure 38
0001
0100
0010
0000
,  // measure 39
1000
0100
0010
0001
,  // measure 40
1000
0000
0000
0000
,  // measure 41
1000
0010
1000
0002
,  // measure 42
0013
0100
1000
0020
,  // measure 43
1030
0001
0010
0001
,  // measure 44
1000
0000
0001
0000
,  // measure 45
1000
0001
0010
0002
,  // measure 46
1003
0010
0100
0002
,  // measure 47
0013
0100
1000
0001
,  // measure 48
1000
0000
0001
0000
,  // measure 49
2000
3010
0200
0301
,  // measure 50
0020
0130
2000
3001
,  // measure 51
0020
0031
2000
3010
,  // measure 52
0200
0302
2003
3020
,  // measure 53
0130
0001
1000
0100
,  // measure 54
0020
0031
2000
3010
,  // measure 55
0002
0103
2000
3010
,  // measure 56
0100
0001
0010
0000
,  // measure 57
1001
0000
0000
0000
,  // measure 58
0010
0000
0000
0000
,  // measure 59
0100
0100
0100
0100
,  // measure 60
1000
0000
0001
0000
,  // measure 61
1001
0000
0000
0000
;
