#TITLE:disappear;
#SUBTITLE:;
#ARTIST:NO ANGELS;
#TITLETRANSLIT:;
#SUBTITLETRANSLIT:;
#ARTISTTRANSLIT:;
#CREDIT:;
#BANNER:disappear-bn-big.png;
#BACKGROUND:disappear-bg.png;
#LYRICSPATH:disappear.lrc;
#CDTITLE:EUROVISION_GERMANY.png;
#MUSIC:disappear.mp3;
#OFFSET:-4.327;
#SAMPLESTART:33.750;
#SAMPLELENGTH:17.840;
#SELECTABLE:YES;
#BPMS:0.000=122.940;
#STOPS:;
#BGCHANGES:;

//---------------dance-single - ----------------
#NOTES:
     dance-single:
     :
     Medium:
     4:
     0.280,0.296,0.028,0.000,0.000:
0001
1000
0001
1000
,
0010
1000
0010
1000
,
0100
0001
0010
0001
,
1000
0100
0010
0000
,
0001
0100
0001
0100
,
0001
1000
0001
1000
,
0100
0010
0001
1000
,
0010
0001
1000
0000
,
0001
0001
0011
0011
,
1000
0010
1000
1000
,
0001
0001
0001
0000
,
0010
0010
0010
0000
,
0001
0100
0010
1000
,
0001
1000
0100
0000
0001
0000
0100
0000
,
1000
0000
0000
0000
,
0000
0001
0001
0001
,
0001
0100
1000
0000
0010
0000
1000
0000
,
1000
0001
0010
0010
,
0010
0001
0100
0000
1000
0000
1000
0000
,
0001
0001
0010
1000
,
0100
0010
0001
0000
0100
0010
1000
0000
,
0100
0010
0001
0000
0100
0010
1000
0000
,
0010
1000
0100
0000
0010
0000
0001
0000
,
1000
0100
0001
0000
0100
0000
1000
0000
,
1000
0100
0001
0000
0010
0000
0001
0000
,
0001
1000
0010
0010
,
0100
1000
0010
0000
0100
0000
0100
0000
,
0001
0001
0010
1000
,
0100
0010
1000
0000
0100
0010
0001
0000
,
0100
0010
1000
0000
0100
0010
0001
0000
,
1000
0010
0001
0010
,
1000
0010
0001
0010
,
1000
0000
0000
0000
;

//---------------dance-single - ----------------
#NOTES:
     dance-single:
     :
     Hard:
     6:
     0.374,0.364,0.185,0.171,0.000: // measure 1
0010
1000
0100
0010
,  // measure 2
0001
0000
0100
0010
0000
1000
0100
0002
,  // measure 3
0000
0103
2000
3100
,  // measure 4
0002
0103
2000
3100
,  // measure 5
0010
0001
1000
0010
,  // measure 6
1000
0000
0001
0010
0000
0001
0100
2000
,  // measure 7
0000
3100
0002
0103
,  // measure 8
2000
3100
0002
0103
,  // measure 9
0010
0000
1000
0000
0001
0000
0010
0001
,  // measure 10
0000
1000
0000
0010
0100
0000
0001
0000
,  // measure 11
1000
1000
1000
0000
,  // measure 12
0001
0001
0001
0000
,  // measure 13
0010
0011
0001
0101
,  // measure 14
0100
1100
1000
1010
,  // measure 15
1001
0000
0000
0000
,  // measure 16
0000
0001
0100
0001
0000
0010
0000
0011
,  // measure 17
0000
0000
1100
0000
0010
1000
0010
0000
,  // measure 18
1000
0100
0010
0001
0100
0000
0001
0000
,  // measure 19
1100
0000
0101
0000
0001
1000
0100
0000
,  // measure 20
1000
0001
0010
0001
1000
0000
0010
0000
,  // measure 21
1010
1001
0010
0001
,  // measure 22
0100
0001
1000
0001
0010
0001
1000
0000
,  // measure 23
0010
0100
0001
1000
0010
0000
0101
0000
,  // measure 24
0010
0100
1000
0010
0100
0000
1001
0000
,  // measure 25
0001
0100
1000
0100
0001
0010
0100
1000
,  // measure 26
0010
0100
0001
0010
0100
1000
0001
0000
,  // measure 27
1000
0001
0010
0001
1000
0010
0100
0001
,  // measure 28
0010
0100
1000
0001
0100
1000
0100
0000
,  // measure 29
0010
1000
0001
0000
1000
1000
1000
0000
,  // measure 30
0010
1000
0001
0001
0100
0010
1000
0000
,  // measure 31
0002
0013
2000
3010
,  // measure 32
0002
0103
2000
3100
,  // measure 33
0010
0000
0000
0000
;

//---------------dance-single - ----------------
#NOTES:
     dance-single:
     :
     Easy:
     2:
     0.187,0.227,0.043,0.000,0.000:
1000
0001
0001
1000
,
0001
0001
1000
0001
,
0010
0000
0001
0000
,
1000
0000
0100
0000
,
1000
1000
0001
1000
,
1000
0001
0001
1000
,
0010
0000
1000
0000
,
0001
0000
0100
0000
,
0010
1000
0001
0000
,
0001
0010
0100
0000
,
1000
0001
0100
0000
,
0001
0010
0100
0000
,
1000
0010
0010
0000
,
1000
0001
0001
0000
,
0010
0000
0000
0000
,
0000
0000
0000
0000
,
1001
1000
0010
0000
,
1000
0001
0100
0000
,
1001
0001
0010
0000
,
0001
1000
0100
0000
,
0010
0010
0000
0000
,
0001
0001
0001
0000
,
0100
0000
0100
0000
,
0010
0000
0010
0000
,
1000
0001
0001
0000
,
1000
0000
0100
0000
,
0100
1000
0010
0000
,
0001
0000
0001
0000
,
0010
0010
0000
0000
,
1000
1000
0001
0100
,
0010
1000
1000
0001
,
0001
0010
0010
0100
,
1001
0000
0000
0000
;

//---------------dance-single - ----------------
#NOTES:
     dance-single:
     :
     Beginner:
     1:
     0.114,0.136,0.014,0.000,0.000:
0010
0000
1000
0000
,
1000
0000
0000
0000
,
0001
0000
0001
0000
,
0010
0000
0000
0000
,
0001
0000
0100
0000
,
0100
0000
0000
0000
,
1000
0000
0001
0000
,
0001
0000
0000
0000
,
0010
0000
0001
0000
,
1000
0000
0000
0000
,
0010
0000
0000
0000
,
0100
0000
0000
0000
,
1000
0000
0001
0000
,
0001
0000
0000
0000
,
0010
0000
0000
0000
,
0000
0001
0001
0001
,
0001
0000
0000
0000
,
0000
0010
0010
0010
,
0010
0000
0000
0000
,
0000
0100
0100
0000
,
1000
0000
0000
0000
,
0010
0000
0010
0000
,
1000
0000
0001
0000
,
1000
0000
0001
0000
,
0010
0000
0010
0000
,
0100
0000
0100
0000
,
1000
0000
0010
0000
,
1000
0000
0010
0000
,
0100
0000
0001
0000
,
0001
0000
0010
0000
,
0001
0000
1000
0000
,
0100
0000
0001
0000
,
1001
0000
0000
0000
;
