#TITLE:crystal ball;
#SUBTITLE:;
#ARTIST:KEANE;
#TITLETRANSLIT:;
#SUBTITLETRANSLIT:;
#ARTISTTRANSLIT:;
#CREDIT:Juub005;
#BANNER:crystal ball-bn.png;
#BACKGROUND:crystal ball-bg.png;
#LYRICSPATH:crystal ball.lrc;
#CDTITLE:UNDER THE IRON SEA.png;
#MUSIC:crystal ball.mp3;
#OFFSET:-3.912;
#SAMPLESTART:50.168;
#SAMPLELENGTH:15.440;
#SELECTABLE:YES;
#BPMS:0.000=124.280,188.000=111.000,189.500=110.000,190.500=95.000,191.000=85.900,191.500=76.900;
#STOPS:;
#BGCHANGES:;

//---------------dance-single - ----------------
#NOTES:
     dance-single:
     :
     Hard:
     6:
     0.341,0.391,0.056,0.254,0.000:
0000
0000
0000
0000
,
0000
0000
0000
0000
,
0000
0000
0000
0000
,
0000
0000
0000
1001
,
0101
0000
0010
0001
0000
1000
0000
0010
,
0100
0000
0010
1000
0000
0001
0000
0010
,
2000
0000
0100
0100
3000
0010
0000
0001
,
0002
0000
0100
0100
0003
0010
0000
1000
,
1000
0000
0000
0001
0000
0000
1000
0001
,
0020
0130
0200
0310
,
0001
0001
0100
1000
0000
0100
0000
0000
,
0001
0001
0100
1000
0000
0100
0000
0000
,
0001
0000
0000
1000
0000
0000
0001
0100
,
0020
1030
0200
0310
,
1000
1000
0100
0001
0000
0100
0000
0010
,
0010
0010
0100
1000
0000
0100
0000
0010
,
0001
0000
0001
1000
0000
0010
0100
0001
,
0000
1000
0010
0100
0000
0000
0000
0000
,
0001
0001
0001
0100
0000
0001
0000
1000
,
0100
0100
0100
1000
0000
0010
0000
1000
,
0001
0000
0010
1000
0000
0001
1000
0100
,
0000
0010
0001
0000
1000
0001
0010
0000
,
0001
0100
0010
0100
,
0100
0001
0010
0001
,
2001
0000
0000
0100
0000
0000
3010
0000
,
0002
0000
0000
0010
0000
0000
1003
0000
,
0200
0000
0000
0001
0000
0000
1300
0000
,
0010
0010
0010
0010
0010
1000
0100
0000
,
0010
0000
0001
0100
0000
0010
0100
0000
,
0001
0000
1000
0100
0000
0010
0100
0000
,
2000
0000
0000
0100
3000
0000
0000
0000
,
0020
0000
0000
0001
0030
0000
0000
0000
,
0001
0100
0010
1000
0000
0010
0100
0000
,
0010
1000
0100
0010
0000
0100
0000
1000
,
0000
0100
0010
0001
0000
1000
0100
0000
,
0010
0010
0010
0010
0010
0001
0100
0000
,
1010
0000
0001
1000
0000
0010
0100
0000
,
0001
0000
1000
0010
0000
0100
0001
0000
,
1002
0000
0000
0100
0003
0000
0000
0000
,
1002
0000
0000
0020
0003
0031
1000
0001
,
0100
0010
1000
0200
0000
1300
0010
0200
,
0000
0310
1000
0200
0000
0310
0001
0010
,
0100
1000
0010
0002
0000
0013
1000
0200
,
0000
1300
0001
0002
0000
1003
1000
0010
,
0100
0001
0010
0200
0000
0310
0001
0200
,
0000
0310
1000
0002
0000
1003
1000
0010
,
0100
0010
1000
0200
0000
0301
0100
2000
,
0000
0000
0000
3200
0000
0310
0001
1000
,
0200
0000
0000
0000
,
0300
0000
0000
0000
;

//---------------dance-single - ----------------
#NOTES:
     dance-single:
     :
     Medium:
     5:
     0.266,0.293,0.122,0.038,0.000:
0000
0000
0000
0000
,
0000
0000
0000
0000
,
0000
0000
0000
0000
,
0000
0000
0000
0001
,
1000
0000
0010
0100
0000
0000
0000
0000
,
0010
0000
1000
0010
0000
0100
0000
0001
,
2000
0000
0000
0100
0000
0100
3000
0000
,
0002
0000
0000
0100
0000
0100
0003
0000
,
1000
0000
0000
1000
0000
0000
1000
0000
,
0010
0010
0010
0000
0100
0100
0100
0000
,
0001
0001
0001
0001
0000
0000
0000
0000
,
1000
1000
1000
1000
0000
0000
0000
0000
,
0100
0000
0000
0100
0000
0000
0100
0000
,
0010
0010
0010
0000
0001
0001
0001
0000
,
0100
0100
0100
0100
0000
0000
0000
0000
,
0010
0010
0010
0010
0000
0000
0000
0000
,
1001
0000
0000
0000
,
0110
0000
0000
0000
,
0010
1000
0001
0100
0000
0000
0000
0000
,
0010
1000
0001
0100
0000
0000
0000
0000
,
0001
1000
1000
0100
,
0100
0010
0010
0001
,
0001
0010
0001
0100
0000
0000
0000
0000
,
0001
0010
0001
0100
0000
0000
0000
0000
,
0010
0000
0000
1001
0000
0000
1001
0000
,
0100
0000
0000
1001
0000
0000
1001
0000
,
1000
0000
0000
0110
0000
0000
0110
0000
,
0001
0000
0100
0000
0010
0100
0010
0000
,
1000
0000
0000
1000
0000
0000
1000
0000
,
0100
0000
0000
0100
0000
0000
0100
0000
,
0020
0000
0000
0030
0000
0000
0000
0000
,
0200
0000
0000
0300
0000
0000
0000
0000
,
0001
1000
0001
0000
1000
0010
1000
0000
,
0001
0010
0001
0000
1000
0100
1000
0000
,
0001
0010
0100
1000
0000
0000
0000
0000
,
1000
0010
1000
0010
1000
0010
0100
0000
,
0001
0000
0000
0011
0000
0000
0000
0000
,
1001
0000
0000
1100
0000
0000
0000
0000
,
1001
0001
0100
0010
0000
0000
0000
0000
,
1001
1000
0100
0010
0000
0010
0001
0000
,
1000
0010
0010
0010
0000
0100
0100
0000
,
0001
0100
0100
0100
0000
0010
0010
0000
,
1000
0100
0100
0100
0000
0010
0010
0000
,
0001
0010
0010
0010
0000
0100
1000
0000
,
1000
0010
0010
0100
0000
0100
0001
0000
,
1000
0100
0100
0010
0000
0010
0001
0000
,
1000
0010
0100
0001
0000
0001
1000
0000
,
0001
0010
0100
1000
,
0010
0000
0000
0000
;

//---------------dance-single - ----------------
#NOTES:
     dance-single:
     :
     Easy:
     2:
     0.170,0.206,0.009,0.348,0.000:
0000
0000
0000
0000
,
0000
0000
0000
0000
,
0000
0000
0000
0000
,
0000
0000
0000
0110
,
0002
0000
0003
0100
,
0020
0000
0030
0010
,
2000
0000
3000
0000
,
0002
0000
0003
0000
,
2000
3000
0200
0300
,
0020
0030
0002
0003
,
0200
0000
0000
0300
,
0020
0000
0000
0030
,
2000
3000
0020
0030
,
0200
0300
0002
0003
,
2000
0000
0000
3000
,
2000
0000
0000
3000
,
0010
1000
0000
0100
,
0000
0010
0000
0001
,
0100
0100
0100
0000
,
0100
0100
0100
0000
,
1000
0000
0000
0000
,
0001
0000
0000
0000
,
0010
0000
0010
0000
,
0100
0000
1000
0000
,
0020
0000
0030
0200
,
0000
0000
0302
0000
,
2003
0000
0000
0000
,
3100
0100
0100
0100
,
0020
0000
0000
0032
,
0000
0000
2003
0000
,
3020
0000
0000
0030
0000
0000
0000
0000
,
0200
0000
0000
0300
0000
0000
0000
0000
,
0002
0000
0000
0203
,
0000
0000
0320
2030
,
3002
0000
0000
0000
,
0013
0010
0010
0010
,
0200
0000
0000
2300
,
0000
0000
3020
0230
,
0302
0000
0000
0003
0000
0000
0000
0000
,
2000
0000
0000
3000
0010
0000
0100
0000
,
0001
1000
0100
0100
,
0010
0000
0000
0000
,
0001
1000
0010
0010
,
0100
0000
0000
0000
,
0001
1000
0100
0100
,
1000
0000
0000
0000
,
0010
1000
1000
0001
,
1000
0000
0001
1000
,
0200
0000
0000
0300
;

//---------------dance-single - ----------------
#NOTES:
     dance-single:
     :
     Beginner:
     1:
     0.078,0.135,0.019,0.000,0.000:
0000
0000
0000
0000
,
0000
0000
0000
0000
,
0000
0000
0000
0000
,
0000
0000
0000
0000
,
0010
0000
0000
0000
,
0000
0000
0000
0000
,
1000
0000
0000
0000
,
0100
0000
0000
0000
,
0010
0000
0010
0000
,
0001
0000
0001
0000
,
1000
0000
0000
0000
,
1000
0000
0000
0000
,
0010
0000
0010
0000
,
1000
0000
1000
0000
,
0001
0000
0000
0000
,
0100
0000
0000
0000
,
0010
0000
0000
0000
,
1000
0000
0000
0000
,
0001
0000
0000
0000
,
1000
0000
0000
0000
,
0100
0000
0000
0000
,
0010
0000
0000
0000
,
0001
0000
0000
0000
,
0000
0000
0000
0000
,
1000
0000
0000
0000
,
0001
0000
0000
0000
,
0010
0000
0000
0000
,
0100
0100
0100
0000
,
1000
0000
0000
0000
,
0010
0000
0000
0000
,
0100
0000
0000
0000
,
0000
0000
0000
0000
,
1000
0000
0000
0000
,
0100
0000
0100
0000
,
0010
0000
0010
0000
,
0001
0001
0001
0000
,
0100
0000
0000
0000
,
0010
0000
0000
0000
,
1001
0000
0000
0000
,
1001
0000
0000
0000
,
0010
0000
0010
0000
,
1000
0000
0000
0000
,
0100
0000
0100
0000
,
0001
0000
0000
0000
,
0010
0000
0010
0000
,
0001
0000
0000
0000
,
0100
0000
0100
0000
,
1000
0000
0000
0000
,
0001
0000
0000
0000
;
