#TITLE:YOU WON'T FORGET ABOUT ME;
#SUBTITLE:;
#ARTIST:DANNII MINOGUE vs. FLOWER POWER;
#TITLETRANSLIT:;
#SUBTITLETRANSLIT:;
#ARTISTTRANSLIT:;
#CREDIT:;
#BANNER:YOU WON'T FORGET ABOUT ME.png;
#BACKGROUND:YOU WON'T FORGET ABOUT ME-bg.png;
#LYRICSPATH:;
#CDTITLE:Los Cuarenta 40.png;
#MUSIC:YOU WON'T FORGET ABOUT ME.mp3;
#OFFSET:-2.059;
#SAMPLESTART:55.807;
#SAMPLELENGTH:15.233;
#SELECTABLE:YES;
#DISPLAYBPM:125.000;
#BPMS:0.000=125.000;
#STOPS:;
#BGCHANGES:;

//---------------dance-single - ----------------
#NOTES:
     dance-single:
     :
     Hard:
     7:
     0.311,0.341,0.044,0.177,0.188:
0000
0000
0000
0000
,
0000
0000
0000
0000
,
0000
0000
0000
0000
,
0000
0000
0000
0000
,
1000
0000
0010
0100
0000
0001
0000
0010
,
0000
0100
0000
0010
0000
0100
0000
1000
,
0000
0000
0010
0000
0000
0000
0000
0000
1000
0000
0010
0100
0000
0000
0000
0000
,
0001
0000
1000
0000
0100
0000
0000
0000
1000
0000
0010
0100
0000
0000
0000
0000
,
0001
0000
1000
0100
0000
1000
0000
0010
,
0000
0100
0000
0010
0000
0100
0000
0001
,
0010
0000
0100
0000
1000
0000
0000
0000
0010
0000
1000
0001
0000
0000
0000
0000
,
0010
0100
0010
0000
0001
0000
0100
0010
0000
0000
0000
0000
0000
0000
0000
0000
,
1000
0000
0010
0100
0000
0001
0000
1000
,
0000
0100
0000
1000
0000
0100
0000
0010
,
0000
0000
0001
0000
0000
0000
0000
0000
1000
0000
0001
0010
0000
0000
0000
0000
,
0100
0000
1000
0000
0010
0000
0000
0000
1000
0000
0001
0010
0000
0000
0000
0000
,
0001
0000
0010
0100
0000
1000
0000
0010
,
0000
0100
0000
0001
0000
1000
0000
0100
,
0010
0000
0001
0000
0100
0000
0000
0000
0010
0000
1000
0001
0000
0000
0000
0000
,
0100
0001
0100
0000
0010
0000
1000
0100
0000
0000
0000
0000
0000
0000
0000
0000
,
2010
0000
0000
0200
3000
0000
0020
0300
,
0000
0002
0030
0000
0000
0000
1003
0000
,
0102
0000
0000
0020
0003
0000
0200
0030
,
0000
2000
0300
0000
0001
0000
3001
0000
,
1001
0000
0001
0100
,
0010
0000
0000
0000
,
1000
0000
0010
0000
0100
0000
0001
1000
,
0010
1000
0001
0100
,
2001
0000
0000
0000
0000
0000
0000
0000
0000
0000
3001
0000
0000
0010
0000
0000
,
0100
0000
0000
1000
0000
0000
0010
0000
0100
0000
0000
0001
0000
0000
0010
0000
,
0200
0000
0000
0000
0000
0000
0000
0000
0000
0000
1300
0000
0000
0001
0000
0000
,
0100
0000
0000
0001
0000
0000
1000
0000
0100
0000
0000
0010
0000
0000
0001
0000
,
2000
0000
0000
0000
0000
0000
0000
0000
0000
0000
3010
0000
0000
1000
0000
0000
,
0001
0000
0000
0010
0000
0000
0100
0000
1000
0000
0000
0100
0000
0000
0010
0000
,
0002
0000
0000
0000
0000
0000
0000
0000
0000
0000
1003
0000
0000
0010
0000
0000
,
0100
0000
0000
0001
0000
0000
0010
0000
0100
0000
0000
1000
0000
0000
0001
0000
,
2000
0000
0000
0000
0000
0000
0000
0000
0000
0000
3010
0000
0000
0100
0000
0000
,
0001
0000
0000
0010
0000
0000
0100
0000
1000
0000
0000
0100
0000
0000
0010
0000
,
0002
0000
0000
0000
0000
0000
0000
0000
0000
0000
1003
0000
0000
0010
0000
0000
,
0100
0000
0000
0010
0000
0000
1000
0000
0001
0000
0000
0010
0000
0000
0100
0000
,
2000
0000
0000
0000
0000
0000
0000
0000
0000
0000
3010
0000
0000
0100
0000
0000
,
0001
0000
0000
0100
0000
0000
0010
0000
1000
0000
0000
0001
0000
0000
0010
0000
,
0200
0000
0000
0000
0000
0000
0000
0000
0000
0000
1300
0000
0000
0001
0000
0000
,
0100
0000
0000
0001
0000
0000
1000
0000
0100
0000
0000
0010
0000
0000
0001
0000
,
1000
0000
0000
0000
;

//---------------dance-single - ----------------
#NOTES:
     dance-single:
     :
     Medium:
     6:
     0.269,0.292,0.022,0.000,0.000:
0000
0000
0000
0000
,
0000
0000
0000
0000
,
0000
0000
0000
0000
,
0000
0000
0000
0000
,
1000
0000
0001
0100
0000
0001
0000
1000
,
0000
0100
0000
1000
0000
0001
0000
0010
,
0000
0001
0000
0000
1000
0001
1000
0000
,
0001
0100
0001
0010
0001
0100
0001
0000
,
0000
0000
0010
0001
0000
0010
0000
0100
,
0000
1000
0000
0001
0000
0100
0000
0010
,
0000
0000
0000
0000
1000
0001
1000
0000
,
1000
0010
1000
0100
1000
0000
0000
0000
,
0001
0000
0010
0001
0000
0010
0000
0100
,
0000
1000
0000
0010
0000
1000
0000
0001
,
0000
0100
0000
0000
0000
0000
0010
0000
,
1000
0100
1000
0010
1000
0100
1000
0000
,
0000
0000
0001
0100
0000
0001
0000
0010
,
0000
0100
0000
1000
0000
0001
0000
0100
,
0000
0000
0000
0000
0010
0100
0010
0000
,
1000
0100
1000
0001
1000
0000
0000
0000
,
0001
0000
0000
0001
0000
0000
0001
0000
,
0000
0001
0000
0000
0000
0000
0010
0000
,
1000
0000
0000
1000
0000
0000
1000
0000
,
0000
1000
0000
0000
1000
0000
0010
0000
,
0001
0000
0001
0100
,
1000
0000
0000
0010
,
1000
0100
1000
0000
,
0001
0100
0001
1001
,
1100
0000
0000
0000
0000
0000
0001
0010
,
0001
0000
1000
0100
1000
0000
0010
0100
,
0010
0000
0000
0000
0000
0000
0010
1000
,
0010
0000
0100
0001
0100
0000
0001
1000
,
0001
0000
0000
0000
0000
0000
1000
0100
,
1000
0000
0001
1000
0001
0000
0001
0100
,
0001
0000
0000
0000
0000
0000
0010
0001
,
0010
0000
0100
0010
0100
0000
1000
0100
,
1000
0000
0000
0000
0000
0000
1000
0100
,
1000
0000
0001
0100
0001
0000
1000
0001
,
1000
0000
0000
0000
0000
0000
0010
0100
,
0010
0000
1000
0010
1000
0000
0001
0100
,
0001
0000
0000
0000
0000
0000
0010
0001
,
0010
0000
0010
0100
0010
0000
0010
1000
,
0010
0000
0000
0000
0000
0000
0010
0001
,
0010
0001
0100
0001
0100
0001
1000
0100
,
1000
0000
0000
0000
;

//---------------dance-single - ----------------
#NOTES:
     dance-single:
     :
     Easy:
     4:
     0.210,0.219,0.011,0.000,0.000:
0000
0000
0000
0000
,
0000
0000
0000
0000
,
0000
0000
0000
0000
,
0000
0000
0000
0000
,
1000
0100
1000
0001
,
0100
0001
1000
0010
,
0100
0000
0001
0001
,
1000
0001
1000
0000
,
0001
0010
0001
1000
,
0100
1000
0001
0010
,
0001
0000
1000
0000
,
1000
0100
1000
0100
1000
0000
0000
0000
,
0001
0010
0001
1000
,
0100
1000
0010
0100
,
0001
0000
1000
0001
,
1000
0010
0100
0000
,
0001
1000
0100
1000
,
0001
0010
0100
1000
,
0010
0000
0000
0000
0100
0010
0100
0010
,
0100
0000
0001
0000
,
0001
0001
1000
1000
,
0001
1000
0000
0010
,
0001
0001
1000
1000
,
0001
1000
0001
0010
,
0100
0000
1000
0001
,
0100
0000
0000
0010
,
1000
0001
0100
0001
,
1000
0100
0010
0001
,
1000
0000
0000
0010
,
0010
0010
0010
0000
,
1000
0100
1000
0000
,
0001
0100
0001
0000
,
1000
0000
0000
0001
,
0001
0001
0001
0000
,
1000
0010
0100
0000
,
0001
0010
0100
0000
,
1000
0000
0000
0010
,
0100
0010
0100
0000
,
0001
0010
0001
0000
,
1000
0010
0100
0001
,
1000
0000
0000
0001
,
1000
0100
0001
0000
,
0100
1000
0010
0000
,
0001
0100
1000
0000
,
1001
0000
0000
0000
;

//---------------dance-single - ----------------
#NOTES:
     dance-single:
     :
     Beginner:
     1:
     0.111,0.195,0.022,0.000,0.000: // measure 1
0000
0000
0000
0000
,  // measure 2
0000
0000
0000
0000
,  // measure 3
0000
0000
0000
0000
,  // measure 4
0000
0000
0000
0000
,  // measure 5
1000
0000
0001
0000
,  // measure 6
1000
1000
1000
0000
,  // measure 7
0001
0000
0000
0000
,  // measure 8
0000
0000
0000
0000
,  // measure 9
0100
0000
0010
0000
,  // measure 10
0100
0100
0100
0000
,  // measure 11
0010
0000
0000
0000
,  // measure 12
0000
0000
0000
0000
,  // measure 13
1000
0000
0100
0000
,  // measure 14
1000
1000
1000
0000
,  // measure 15
0001
0000
0000
0000
,  // measure 16
0000
0000
0000
0000
,  // measure 17
0000
0000
0000
0000
,  // measure 18
0001
0000
0010
0000
,  // measure 19
0001
0001
0001
0000
,  // measure 20
1000
0000
1000
0000
,  // measure 21
0001
0000
0000
0001
,  // measure 22
0000
0000
0000
1000
,  // measure 23
1000
0000
0000
1000
,  // measure 24
0000
0000
0001
0001
,  // measure 25
0001
0000
1000
0000
,  // measure 26
0000
0000
0000
0000
,  // measure 27
0001
0001
0001
0000
,  // measure 28
1000
1000
1000
0000
,  // measure 29
1001
0000
0000
0000
,  // measure 30
0001
0000
0001
0000
,  // measure 31
0010
0000
0000
0000
,  // measure 32
0100
0100
0100
0000
,  // measure 33
1000
0000
0000
0000
,  // measure 34
0001
0000
0000
0000
,  // measure 35
0100
0000
0100
0000
,  // measure 36
0001
0001
0001
0000
,  // measure 37
1000
0000
0000
0000
,  // measure 38
0100
0000
0000
0000
,  // measure 39
1000
1000
1000
0000
,  // measure 40
0001
0001
0001
0000
,  // measure 41
1000
0000
0000
0000
,  // measure 42
0010
0000
0000
0000
,  // measure 43
0100
0000
0100
0000
,  // measure 44
0001
0000
0000
0000
,  // measure 45
1001
0000
0000
0000
;
