#TITLE:YEAH!;
#SUBTITLE:;
#ARTIST:Christine;
#TITLETRANSLIT:;
#SUBTITLETRANSLIT:;
#ARTISTTRANSLIT:;
#CREDIT:;
#BANNER:YEAH!.png;
#BACKGROUND:YEAH!-bg.png;
#LYRICSPATH:;
#CDTITLE:SUPER EUROBEAT 167.png;
#MUSIC:YEAH!.ogg;
#OFFSET:-1.185;
#SAMPLESTART:48.596;
#SAMPLELENGTH:12.000;
#SELECTABLE:YES;
#BPMS:0.000=153.000;
#STOPS:;
#BGCHANGES:;

//---------------dance-single - ----------------
#NOTES:
     dance-single:
     :
     Hard:
     7:
     0.485,0.517,0.228,0.282,0.005:
0000
0000
0000
0000
,
0000
0000
0000
0000
,
0000
0000
0000
0000
,
0000
0000
0000
0000
,
0000
0000
0000
0000
,
0000
0000
0000
0000
,
0000
0000
0000
0000
,
0000
0000
0000
0000
,
0010
0000
1001
0000
0010
1000
0001
0020
,
0000
0031
1000
0020
0000
1030
0001
0000
,
0100
0000
1001
0000
0100
1000
0001
0020
,
0000
0031
1000
0000
0010
0100
0010
0000
,
0100
0000
1001
0000
1000
0001
0010
0200
,
0000
1300
0001
0200
0000
0301
1000
0000
,
0010
0000
1001
0000
0100
0010
0100
0010
,
0000
0001
1000
0000
0010
0010
0000
0000
,
0010
0000
1000
0000
0001
1000
0100
0000
,
0010
0000
0001
0000
0010
0100
0010
0100
,
0010
0000
0001
0000
1000
0010
0100
0000
,
0001
1000
0100
0010
0001
0000
0100
0000
,
0010
0000
1000
0000
0010
0100
0001
0000
,
0010
0000
1000
0000
0001
1000
0001
1000
,
0001
0000
0010
0000
0100
1000
0100
0010
,
0001
0010
0100
1000
0001
0100
0010
0000
,
0020
0000
1030
0100
1000
0001
0100
0010
,
0100
0000
0000
0100
0000
0000
0100
0000
0010
0000
1000
0000
0010
0000
0100
0000
,
1000
0100
0001
0000
1000
0100
0001
0000
,
1000
0100
0010
0001
0100
0010
1000
0000
,
0020
0000
1030
0100
1000
0002
0000
0020
,
0000
0000
0000
0033
,
1001
0000
0000
0000
,
0010
1000
0010
0100
0010
1000
0010
0100
,
0001
0010
0100
0010
0001
0010
0100
0010
,
0001
1000
0100
1000
0001
1000
0010
1000
,
0001
0010
1000
0010
0001
0010
1000
0000
,
0012
1003
2100
3001
,
2001
3100
1002
0103
,
0010
1000
0010
0100
0000
0001
0000
1000
,
0000
0002
2003
3200
,
0310
0100
0010
0001
0010
1000
0010
0001
,
0100
0010
0100
1000
0100
0001
0100
0010
,
1000
0100
0010
0100
0001
0100
0010
0100
,
1000
0001
0100
1000
0100
0001
0100
0000
,
2001
3010
1002
0013
,
0120
1030
0210
0301
,
1000
0100
0010
0001
0000
1000
0000
0010
,
1000
0000
0001
0100
0000
0000
1001
0000
,
0011
0000
0000
1100
0000
1001
0000
0000
,
0100
0000
1001
0000
0100
0001
1000
0200
,
0000
1300
0001
0200
0000
0301
1000
0000
,
0010
0000
1001
0000
0010
0001
1000
0200
,
0000
1300
0001
0000
0100
0010
0100
0000
,
0010
0000
1001
0000
0001
1000
0100
0020
,
0000
0031
1000
0020
0000
1030
0001
0000
,
0100
0000
1001
0000
0010
0100
0010
0100
,
0000
1000
0001
0000
0100
0020
0000
0000
,
0030
0000
0000
0000
;

//---------------dance-single - ----------------
#NOTES:
     dance-single:
     :
     Medium:
     5:
     0.346,0.392,0.065,0.098,0.000:
0000
0000
0000
0000
,
0000
0000
0000
0000
,
0000
0000
0000
0000
,
0000
0000
0000
0000
,
0000
0000
0000
0000
,
0000
0000
0000
0000
,
0000
0000
0000
0000
,
0000
0000
0000
0000
,
1000
0000
0100
0000
1000
0100
0000
0010
,
0000
0001
0010
0000
0001
0100
0001
0000
,
1000
0000
0100
0000
0000
1000
0000
0100
,
0000
0010
0001
0000
1000
0001
0000
0000
,
0100
0000
0010
0000
0000
1000
0000
0001
,
0000
0100
0001
0000
1000
0100
0010
0000
,
0001
0000
1000
0000
0000
0001
0000
1000
,
0000
0100
1000
0000
0100
0010
0100
0000
,
1000
0001
0100
0001
,
1000
0000
0100
0000
0010
0001
0000
0000
,
0001
0000
0100
0000
0010
1000
0000
0000
,
0001
0100
0010
1000
,
0001
0000
0100
0000
0001
0010
0000
0000
,
0001
0000
1000
0000
0100
0010
0000
0000
,
0100
0000
1000
0000
0001
0100
0000
0000
,
0001
0000
1000
0000
0100
1000
0100
0000
,
0010
0001
0010
0001
,
0010
0000
0010
0000
0100
0010
0100
0000
,
1000
1000
0010
0010
,
0100
0001
0100
0000
0010
1000
0010
0000
,
1000
0000
0100
0000
0010
0100
0010
0100
,
2000
0100
0100
3100
,
1100
0000
0000
0000
,
0001
0000
0100
0000
0010
0100
0010
0000
,
1100
0000
0001
0000
0010
0100
0010
0000
,
0100
0000
1000
0000
0010
0100
0001
0000
,
1001
0000
1000
0000
0100
1000
0100
0000
,
0020
0031
0200
0310
,
2000
3100
0020
0031
,
1000
0100
1000
0100
0000
0010
0000
0001
,
0000
1000
0001
1000
,
0001
0000
0100
0000
0010
1000
0010
0000
,
0100
0000
0001
0000
0010
0001
0010
0000
,
1001
0000
1000
0000
0100
0010
0100
0000
,
1000
0000
0001
0000
0100
0010
0100
0000
,
0002
0013
0200
1300
,
0020
0130
0002
1003
,
0100
0000
1000
0100
0000
0010
0000
0001
,
0100
0000
0000
0001
0000
0000
0000
0000
,
1000
0000
0000
1100
0000
1001
0000
0000
,
0100
0000
0010
0000
0000
1000
0000
0001
,
0000
0100
0010
1000
0000
0100
0010
0000
,
0100
0000
1000
0000
0000
0001
0000
0100
,
0000
0010
0100
0000
0001
1000
0000
0000
,
0100
0000
1000
0000
0000
0100
0000
0010
,
0000
0001
0100
0000
0001
1000
0001
0000
,
1000
0000
0010
0000
0000
0100
0000
0001
,
0000
1000
0100
0000
0010
0100
0000
0000
;

//---------------dance-single - ----------------
#NOTES:
     dance-single:
     :
     Easy:
     3:
     0.254,0.302,0.011,0.098,0.000: // measure 1
0000
0000
0000
0000
,  // measure 2
0000
0000
0000
0000
,  // measure 3
0000
0000
0000
0000
,  // measure 4
0000
0000
0000
0000
,  // measure 5
0000
0000
0000
0000
,  // measure 6
0000
0000
0000
0000
,  // measure 7
0000
0000
0000
0000
,  // measure 8
0000
0000
0000
0000
,  // measure 9
1000
0100
0000
1000
,  // measure 10
0100
0010
0001
0000
,  // measure 11
0100
0010
0000
1000
,  // measure 12
0001
0100
0010
0000
,  // measure 13
1000
0100
0000
0010
,  // measure 14
0001
1000
0100
0000
,  // measure 15
0010
0001
0000
0100
,  // measure 16
0010
1000
0001
0000
,  // measure 17
1000
0100
1000
0100
,  // measure 18
0010
0001
0010
0001
,  // measure 19
0100
0001
0100
0001
,  // measure 20
1000
0010
1000
0010
,  // measure 21
0100
0001
0010
0100
,  // measure 22
1000
0010
0100
0001
,  // measure 23
1000
0100
0010
0001
,  // measure 24
1000
1000
0100
0100
,  // measure 25
1000
0001
0100
0000
,  // measure 26
0010
1000
0001
0000
,  // measure 27
0010
0100
1000
0000
,  // measure 28
0001
0000
0100
0000
,  // measure 29
0010
0000
1000
0001
,  // measure 30
2000
0000
0000
0000
,  // measure 31
3001
0000
0000
0000
,  // measure 32
1000
0001
1000
0001
,  // measure 33
0010
0100
0010
0100
,  // measure 34
1000
0001
1000
0001
,  // measure 35
0100
0010
0100
0000
,  // measure 36
0020
1030
0200
1300
,  // measure 37
0200
0310
0200
1300
,  // measure 38
0001
0000
0100
0010
,  // measure 39
1000
0000
0001
0000
,  // measure 40
0010
0100
1000
0100
,  // measure 41
0010
0001
0100
0010
,  // measure 42
0100
0001
0010
1000
,  // measure 43
0010
0001
0100
0000
,  // measure 44
0002
0013
0200
0310
,  // measure 45
0002
0103
0200
0310
,  // measure 46
0001
0000
0001
0000
,  // measure 47
1000
0000
0100
0000
,  // measure 48
0010
0000
1001
0000
,  // measure 49
1000
0001
0000
1000
,  // measure 50
0001
0100
0010
0000
,  // measure 51
1000
0100
0000
0010
,  // measure 52
0001
1000
0010
0000
,  // measure 53
0001
0010
0000
0001
,  // measure 54
1000
0100
0010
0000
,  // measure 55
0001
1000
0000
0010
,  // measure 56
0100
0000
0001
0000
1000
0010
0000
0000
;
