#TITLE:WOW;
#SUBTITLE:;
#ARTIST:KYLIE MINOGUE;
#TITLETRANSLIT:;
#SUBTITLETRANSLIT:;
#ARTISTTRANSLIT:;
#CREDIT:;
#BANNER:WOW.png;
#BACKGROUND:WOW-bg.png;
#LYRICSPATH:;
#CDTITLE:LOVE HOUSE PLATINUM.png;
#MUSIC:WOW.mp3;
#OFFSET:-1.988;
#SAMPLESTART:48.700;
#SAMPLELENGTH:11.980;
#SELECTABLE:YES;
#BPMS:0.000=124.003;
#STOPS:;
#BGCHANGES:7.500=WOW-01.avi=0.960=1=1=0,
136.000=WOW-02.avi=0.960=0=0=1,
165.500=WOW-03.avi=0.960=0=0=1,
184.000=WOW-04.avi=0.960=0=0=1,
185.000=WOW-bg.png=1.000=0=0=1,
99999=-nosongbg-=1.000=0=0=0 // don't automatically add -songbackground-
;

//---------------dance-single - ----------------
#NOTES:
     dance-single:
     :
     Easy:
     2:
     0.158,0.214,0.114,0.062,0.000: // measure 1
0000
0000
0000
0000
,  // measure 2
0000
0000
0000
0000
,  // measure 3
0000
0000
0000
0000
,  // measure 4
0000
0000
0000
0000
,  // measure 5
0001
0000
0100
0000
,  // measure 6
0010
0000
0100
0100
,  // measure 7
0010
0000
1000
0000
,  // measure 8
0100
0000
0010
0010
,  // measure 9
0200
0000
0000
0000
,  // measure 10
0000
0000
0000
0300
,  // measure 11
0010
0000
0001
0000
,  // measure 12
0001
0000
0110
0000
,  // measure 13
0200
0000
0000
0000
,  // measure 14
0000
0000
0000
0300
,  // measure 15
1000
0000
0100
0000
,  // measure 16
0100
0000
0110
0000
,  // measure 17
0001
0000
0001
0000
,  // measure 18
0100
0010
0100
0000
,  // measure 19
1000
0000
0000
0000
,  // measure 20
1000
0100
0001
0000
,  // measure 21
1000
0000
1000
0000
,  // measure 22
0100
0010
0100
0000
,  // measure 23
0001
0000
0000
0000
,  // measure 24
0001
0100
1000
0100
,  // measure 25
0010
0000
0010
0000
,  // measure 26
0001
1000
0000
1000
,  // measure 27
0100
0000
0001
0000
,  // measure 28
0010
0010
0010
0000
,  // measure 29
1000
0000
0001
0000
,  // measure 30
0100
0010
0000
0010
,  // measure 31
1000
0000
0010
0000
,  // measure 32
0200
0300
1001
0000
,  // measure 33
1001
0000
0000
0000
,  // measure 34
0020
0030
1001
0000
,  // measure 35
1001
0000
0100
0000
,  // measure 36
0001
0000
0100
0000
,  // measure 37
1000
1000
0100
0000
,  // measure 38
0001
0010
1000
0100
,  // measure 39
0010
0000
0010
0000
,  // measure 40
0001
0000
0100
0100
,  // measure 41
1000
0000
0000
0000
,  // measure 42
0002
0003
0110
0000
,  // measure 43
0110
0000
0000
0000
,  // measure 44
2000
3000
0110
0000
,  // measure 45
0110
0000
0001
0001
,  // measure 46
0001
0000
1000
0010
,  // measure 47
1001
0000
0000
0000
;

//---------------dance-single - ----------------
#NOTES:
     dance-single:
     :
     Medium:
     5:
     0.276,0.309,0.114,0.145,0.057:
0000
0000
0000
0000
,
0000
0000
0000
0000
,
0000
0000
0000
0000
,
0000
0000
0000
0000
,
0001
0000
1000
0010
0000
0000
0000
0000
,
0100
0001
0010
1000
,
0010
0000
0001
0100
0000
0000
0000
0000
,
1000
0001
1000
0001
,
1000
0100
0020
0000
0000
0000
0000
0000
,
0000
0000
0130
1001
,
0010
0001
0200
0000
0000
0000
0300
0000
,
0001
0000
0000
0100
0000
0000
1000
0000
0100
0000
0000
0000
0000
0000
0000
0000
,
0001
0100
0001
0000
0000
0000
1000
0000
,
0010
0100
1000
0001
,
2000
0010
3001
0100
,
0002
0010
1003
0100
,
0010
0000
0000
0010
0000
0000
0000
0000
,
0010
0010
0100
0000
0001
0000
1000
0000
,
0100
0000
0000
0100
0000
0000
0100
0000
0000
0000
0000
0000
0000
0000
0000
0000
,
1000
0010
0001
0010
,
1000
0000
0000
0001
0000
0000
0000
0000
,
0001
0001
0100
0000
0010
0000
1000
0000
,
0001
0000
0000
1000
0000
0000
0001
0000
0000
0000
0000
0000
0000
0000
0000
0000
,
2000
3200
0320
0032
,
0103
0000
0100
0000
0001
0000
1000
0100
,
1000
0010
0100
0101
,
0000
1000
0100
0001
,
0010
0000
1000
0000
0100
0100
0010
0000
,
0110
0000
0001
0100
1000
0000
0100
0000
,
0100
0001
0010
1000
,
2020
0000
3030
1001
,
0100
0000
0000
0000
0000
0000
0000
0000
0000
0000
0000
0000
0000
0000
0000
0000
0000
0000
0000
0000
0000
0000
0000
0000
0000
0000
0000
0000
0000
0000
0000
0000
0001
0000
0000
0000
0000
0000
0000
0000
0000
0000
1000
0000
0000
0000
0000
0000
0000
0000
0000
0000
0000
0001
0000
0000
0000
0000
0000
0000
0000
0000
0000
0000
,
1000
1000
0001
0001
,
0110
0000
0000
0000
0000
0000
0000
0000
0000
0000
0000
0000
0000
0000
0000
0000
0000
0000
0000
0000
0000
0000
0000
0000
0000
0000
0000
0000
0000
0000
0000
0000
0001
0000
0000
0000
0000
0000
0000
0000
0000
0000
0010
0000
0000
0000
0000
0000
0000
0000
0000
0000
0000
0100
0000
0000
0000
0000
0000
0000
0000
0000
0000
0000
,
1000
0000
0001
0000
0100
0000
0001
0010
,
0001
1000
0010
0011
,
0000
1000
0100
0001
,
0010
1000
0001
1010
,
0100
0001
1000
0000
0100
0000
0001
0000
,
0100
1000
0010
0001
,
0220
0000
0330
0000
0000
0000
0000
0001
,
1000
0000
0000
0000
0000
0000
0000
0000
0001
0000
0000
0000
0000
0000
0000
0000
0000
0000
0000
0000
0000
0000
0000
0000
0000
0000
0000
0000
0000
0000
0000
0000
1000
0000
0000
0000
0000
0000
0000
0000
0000
0000
0001
0000
0000
0000
0000
0000
0000
0000
0000
0000
0000
1000
0000
0000
0000
0000
0000
0000
0000
0000
0000
0000
,
0001
0001
1000
1000
,
2020
0000
0000
0000
0000
0000
0000
0000
0000
0000
0000
0000
0000
0000
0000
0000
3030
0000
0000
0000
0000
0000
0000
0000
0000
0000
0000
0000
0000
0000
0000
0000
0001
0000
0000
0000
0000
0000
0000
0000
0000
0000
0010
0000
0000
0000
0000
0000
0000
0000
0000
0000
0000
0100
0000
0000
0000
0000
0000
0000
0000
0000
0000
0000
,
1000
1000
0010
0010
,
1000
0100
0001
0100
1000
0100
0001
0000
,
0110
0000
0000
0000
;

//---------------dance-single - ----------------
#NOTES:
     dance-single:
     :
     Hard:
     7:
     0.367,0.404,0.269,0.289,0.134:
0000
0000
0000
0000
,
0000
0000
0000
0000
,
0000
0000
0000
0000
,
0000
0000
0000
0000
,
1000
0000
0000
0010
0000
0000
0200
0000
0000
0000
0301
0000
1000
0000
0000
0000
,
0001
0000
0000
1000
0000
0000
0001
0000
0000
0000
1000
0000
0000
0010
0000
0000
,
0100
0000
0000
0001
0000
0000
2000
0000
0000
0000
3100
0000
0010
0000
0000
0000
,
0001
0010
0000
0010
0100
0000
0100
1000
0000
0000
0001
0000
0000
0100
0000
0000
,
0010
0000
1010
0000
0000
0001
0010
0100
,
2000
3002
0103
1000
,
0010
0000
0101
0000
0000
1000
0010
0100
,
0001
0000
0000
0001
0000
0000
0001
0000
0010
0000
0000
0000
1000
0000
0000
0000
,
0010
0000
1100
0000
0000
0001
0010
0100
,
1000
1000
0000
0000
0010
0000
0101
0000
,
2000
0010
0001
0100
,
3002
0100
1000
0013
,
2002
0000
3003
0220
0000
0330
0000
0000
,
0001
0010
0100
1000
0010
0100
0001
0000
,
1001
0000
0000
0010
0000
0000
0202
0000
0000
0000
0303
0000
0000
0000
0000
0000
,
1000
0100
0001
0100
1000
0000
0011
0000
,
2200
0000
3300
0202
0000
0303
0000
0000
,
1000
0010
0100
0001
0010
0100
1000
0000
,
0110
0000
0000
0001
0000
0000
2200
0000
0000
0000
3300
0000
0000
0000
0000
0000
,
0010
0001
0100
1000
0010
0100
1001
0000
,
0200
0000
0010
0301
,
0010
0001
0100
1000
0100
0001
0010
0000
,
1000
0000
0000
0000
0001
0000
0000
0000
0100
0000
0000
0010
0000
0000
1000
0000
,
0001
0000
0000
0100
0000
0000
0010
0000
1000
0000
0000
0000
1100
0000
0000
0000
,
0002
0000
0010
0103
,
0010
1000
0100
0001
0100
1000
0010
0000
,
0200
0000
0000
0000
0000
0000
0000
0310
,
0000
0000
0000
0000
0000
0000
0000
0000
0000
0000
0000
0000
0000
0000
0000
0000
0000
0000
0000
0000
0000
0000
0000
0000
0000
0000
0000
0000
0000
0000
0000
0000
0010
0000
0000
0000
0000
0000
0000
0000
0000
0000
0010
0000
0000
0000
0000
0000
0000
0000
0000
0000
0000
0010
0000
0000
0000
0000
0000
0000
0000
0000
0000
0000
,
0110
0101
0110
1100
,
0010
0000
0000
0000
0000
0000
0000
0000
0000
0000
0000
0000
0000
0000
0000
0000
0000
0000
0000
0000
0000
0000
0000
0000
0000
0000
0000
0000
0000
0000
0000
0000
0100
0000
0000
0000
0000
0000
0000
0000
0000
0000
0100
0000
0000
0000
0000
0000
0000
0000
0000
0000
0000
0100
0000
0000
0000
0000
0000
0000
0000
0000
0000
0000
,
0210
0000
0001
1300
,
0001
0100
1000
0001
1000
0100
0001
0000
,
1000
0000
0000
0000
1100
0000
0000
0000
0010
0000
0000
0100
0000
0000
0001
0000
,
0010
0000
0000
0100
0000
0000
1000
0000
0010
0000
0000
0000
0101
0000
0000
0000
,
1020
0000
0001
1030
,
0001
0010
1000
0001
1000
0010
0001
0000
,
0020
0000
0000
0000
0000
0000
0000
0130
,
0000
0000
0000
0000
0000
0000
0000
0000
0000
0000
0000
0000
0000
0000
0000
0000
0000
0000
0000
0000
0000
0000
0000
0000
0000
0000
0000
0000
0000
0000
0000
0000
0100
0000
0000
0000
0000
0000
0000
0000
0000
0000
1000
0000
0000
0000
0000
0000
0000
0000
0000
0000
0000
0001
0000
0000
0000
0000
0000
0000
0000
0000
0000
0000
,
1001
0200
0301
0002
,
1003
0000
0000
0000
0000
0000
0000
0000
0000
0000
0000
0000
0000
0000
0000
0000
0000
0000
0000
0000
0000
0000
0000
0000
0000
0000
0000
0000
0000
0000
0000
0000
0010
0000
0000
0000
0000
0000
0000
0000
0000
0000
1000
0000
0000
0000
0000
0000
0000
0000
0000
0000
0000
0001
0000
0000
0000
0000
0000
0000
0000
0000
0000
0000
,
1001
0020
0031
0002
,
0103
0010
0000
0010
1000
0000
1000
0001
0000
0000
0100
0000
0010
0000
0000
0000
,
1001
0000
0000
0000
;

//---------------dance-single - ----------------
#NOTES:
     dance-single:
     :
     Beginner:
     1:
     0.122,0.190,0.093,0.000,0.000:
0000
0000
0000
0000
,
0000
0000
0000
0000
,
0000
0000
0000
0000
,
0000
0000
0000
0000
,
0001
0000
0100
0000
,
0010
0000
0100
0000
,
0010
0000
1000
0000
,
0100
0000
0010
0000
,
0100
0000
0000
0000
,
0000
0000
0000
0000
,
0010
0000
0001
0000
,
0001
0000
0100
0000
,
0100
0000
0000
0000
,
0000
0000
0000
0000
,
1000
0000
0100
0000
,
0100
0000
0010
0000
,
0001
0000
0001
0000
,
0100
0000
0100
0000
,
1000
0000
0000
0000
,
1000
0000
0001
0000
,
1000
0000
1000
0000
,
0100
0000
0100
0000
,
0001
0000
0000
0000
,
0001
0000
1000
0000
,
0010
0000
0010
0000
,
0001
0000
0000
0000
,
0100
0000
0001
0000
,
0010
0010
0010
0000
,
1000
0000
0001
0000
,
0100
0000
0000
0000
,
1000
0000
0010
0000
,
0100
0000
1001
0000
,
1001
0000
0000
0000
,
0010
0000
1001
0000
,
1001
0000
0100
0000
,
0001
0000
0100
0000
,
1000
0000
0100
0000
,
0001
0000
0100
0000
,
1000
0000
0010
0000
,
0001
0000
0100
0000
,
1000
0000
0000
0000
,
0001
0000
0110
0000
,
0110
0000
0000
0000
,
1000
0000
0110
0000
,
0110
0000
0001
0001
,
0001
0000
1000
0000
,
1001
0000
0000
0000
;

//---------------dance-double - ----------------
#NOTES:
     dance-double:
     :
     Hard:
     7:
     0.351,0.380,0.103,0.072,0.145:
00000000
00000000
00000000
00000000
,
00000000
00000000
00000000
00000000
,
00000000
00000000
00000000
00000000
,
00000000
00000000
00000000
00000000
,
00000010
00000000
00000000
00000100
00000000
00000000
00001000
00000000
00000000
00000000
00000001
00000000
00001000
00000000
00000000
00000000
,
00000010
00000000
00000000
00001000
00000000
00000000
00000100
00000000
00000000
00000000
00020000
00000000
00000000
00001000
00000000
00000000
,
00031000
00000000
00000000
00100000
00000000
00000000
00010000
00000000
00000000
00000000
01000000
00000000
00100000
00000000
00000000
00000000
,
10000000
00000000
00000000
01000000
00000000
00000000
00100000
00000000
00000000
00000000
00020000
00000000
00000000
10000000
00000000
00000000
,
10030000
00010000
01000000
00000000
00000000
00100000
00010000
00001000
,
00000100
00000010
00000001
00000100
,
00000001
00001000
00000001
00000000
00000000
00000010
00001000
00010000
,
01000000
00000000
00000000
00100000
00000000
00000000
10000000
00000000
00010000
00000000
00100000
00000000
00010000
00000000
00000000
00000000
,
10000000
00010000
00100000
00000000
00000000
01000000
00010000
00001000
,
00000010
00000100
00000001
00000010
,
00000001
00000000
00000000
00000100
00000010
00000000
00001000
00000000
00000001
00000000
00001000
00000000
00000100
00000000
00000000
00000000
,
00010000
00000000
00000000
00001000
00010000
00000000
00001000
00000000
01000000
00000000
00010000
00000000
00100000
00000000
00000000
00000000
,
10010000
00000000
00100000
02000000
00000000
03000000
00000000
00000000
,
00010000
00000000
10000000
00000000
00100000
00010000
00001000
00000000
,
00010000
00000000
00000000
00001000
00000000
00000000
00000200
00000000
00000000
00000000
00000300
00000000
00000000
00000000
00000000
00000000
,
00000001
00000000
00000010
00000000
00000001
00000100
00000010
00000000
,
00001100
00000000
00000001
00000200
00000000
00000300
00000000
00000000
,
00001000
00000000
00000100
00000000
00000010
00000001
00000100
00000000
,
00001000
00000000
00000000
00010000
00000000
00000000
02000000
00000000
00000000
00000000
03000000
00000000
00000000
00000000
00000000
00000000
,
10000000
01000000
00000000
10000000
01000000
00000000
00100000
00000000
00010000
00000000
00000000
01000000
00000000
00000000
00000000
00000000
,
10010000
00000000
00100000
01000000
10000000
00000000
00010000
00000000
,
01000000
00001000
00010000
00000000
01000000
00000000
00010000
00000000
,
00001000
00000000
00000000
00000000
00000010
00000000
00000001
00000000
00000100
00000000
00000000
00000010
00000000
00000000
00001000
00000000
,
00000100
00000000
00000000
00000010
00000000
00000000
00000001
00000000
00000100
00000000
00000000
00000000
00001010
00000000
00000000
00000000
,
00000101
00000000
00001000
00000010
00000100
00000000
00000001
00000000
,
00001000
00000100
00010000
00000000
00001000
00000000
00000010
00000000
,
00001000
00000000
00000000
00001000
00010000
00000000
00000000
00000000
00100000
00000000
00000000
00000000
10000000
00000000
00000000
00000000
,
00010000
00000000
00000000
00000000
00000000
00000000
00000000
00000000
00100000
00000000
00000000
00000000
00000000
00000000
00000000
00000000
00010000
00000000
00000000
00000000
00000000
00000000
00000000
00000000
00000000
00000000
00000000
00000000
00000000
00000000
00000000
00000000
10000000
00000000
00000000
00000000
00000000
00000000
00000000
00000000
00000000
00000000
00100000
00000000
00000000
00000000
00000000
00000000
00000000
00000000
00000000
00000000
00000000
10000000
00000000
00000000
00000000
00000000
00000000
00000000
00000000
00000000
00000000
00000000
,
00100000
00000000
00100000
00000000
10000000
01000000
10000000
00010000
,
00100000
00000000
00000000
00000000
00000000
00000000
00000000
00000000
01000000
00000000
00000000
00000000
00000000
00000000
00000000
00000000
00100000
00000000
00000000
00000000
00000000
00000000
00000000
00000000
00000000
00000000
00000000
00000000
00000000
00000000
00000000
00000000
00001000
00000000
00000000
00000000
00000000
00000000
00000000
00000000
00000000
00000000
00010000
00000000
00000000
00000000
00000000
00000000
00000000
00000000
00000000
00000000
00000000
00001000
00000000
00000000
00000000
00000000
00000000
00000000
00000000
00000000
00000000
00000000
,
00011000
00000000
00010000
00001000
00000010
00000000
00000001
00000000
,
00000100
00000010
00001000
00000000
00000021
00000000
00000130
00000000
,
00000001
00000000
00000100
00000000
00001000
00000000
00000000
00000000
00010000
00000000
00000000
01000000
00000000
00000000
10000000
00000000
,
00100000
00000000
00000000
01000000
00000000
00000000
00010000
00000000
10000000
00000000
00000000
00000000
01010000
00000000
01000000
00000000
,
00100000
00000000
10000000
01000000
00100000
00000000
00010000
00000000
,
01000000
00001000
00010000
00000000
01000000
00000000
00010000
00000000
,
00001000
00000000
00000000
00001000
00010000
00000000
00000000
00000000
00000100
00000000
00000000
00000000
00000010
00000000
00000000
00000000
,
00000001
00000000
00000000
00000000
00000000
00000000
00000000
00000000
00000010
00000000
00000000
00000000
00000000
00000000
00000000
00000000
00000001
00000000
00000000
00000000
00000000
00000000
00000000
00000000
00000000
00000000
00000000
00000000
00000000
00000000
00000000
00000000
00000100
00000000
00000000
00000000
00000000
00000000
00000000
00000000
00000000
00000000
00000010
00000000
00000000
00000000
00000000
00000000
00000000
00000000
00000000
00000000
00000000
00000100
00000000
00000000
00000000
00000000
00000000
00000000
00000000
00000000
00000000
00000000
,
00000010
00000000
00000010
00000000
00000001
00001000
00000001
00000100
,
00000010
00000000
00000000
00000000
00000000
00000000
00000000
00000000
00001000
00000000
00000000
00000000
00000000
00000000
00000000
00000000
00000010
00000000
00000000
00000000
00000000
00000000
00000000
00000000
00000000
00000000
00000000
00000000
00000000
00000000
00000000
00000000
00010000
00000000
00000000
00000000
00000000
00000000
00000000
00000000
00000000
00000000
00001000
00000000
00000000
00000000
00000000
00000000
00000000
00000000
00000000
00000000
00000000
00010000
00000000
00000000
00000000
00000000
00000000
00000000
00000000
00000000
00000000
00000000
,
00011000
00010000
00100000
00100000
,
10000000
00100000
10000000
01000000
10000000
00010000
10000000
00000000
,
01100000
00000000
00000000
00000000
;

//---------------dance-double - ----------------
#NOTES:
     dance-double:
     :
     Medium:
     5:
     0.310,0.309,0.248,0.124,0.026:
00000000
00000000
00000000
00000000
,
00000000
00000000
00000000
00000000
,
00000000
00000000
00000000
00000000
,
00000000
00000000
00000000
00000000
,
00010000
00000000
01000000
00000000
00000000
10000000
00010000
00000000
,
00100000
00000000
00000000
00000000
01000000
00000000
00000000
00000000
00000000
00000000
10000000
00000000
00000000
00100000
00000000
00000000
,
00010000
00000000
00001000
00000000
00000000
00010000
00000100
00000000
,
00001000
00000000
00000000
00000000
00000010
00000000
00000000
00000000
00000000
00000000
00000001
00000000
00000000
00000010
00000000
00000000
,
00001000
00010000
00001000
00000000
00000000
00000000
00100000
00000000
,
00010000
01000000
00100000
10000000
,
01000000
00010000
01000000
00000000
00000000
00000000
00001000
00000000
,
00000010
00000100
00000001
00000010
,
00000100
00001000
00000001
00000000
00000000
00000000
00000100
00000000
,
00001000
00010000
00100000
10000000
,
00100000
10000000
00010000
00000000
11000000
00000000
00000000
00000000
,
00100000
00010000
10000000
00000000
01010000
00000000
00000000
00000000
,
00100000
00000000
10000000
01000000
00200000
00000000
00300000
00000000
,
00101000
00010000
00001000
00000100
,
00000010
00000000
00000000
00000010
00000000
00000000
00000020
00000000
00000000
00000000
00000000
00000000
00000030
00000000
00000000
00000000
,
00010100
00001000
00010000
01000000
,
00100000
00000000
00010000
01000000
00200000
00000000
00300000
00000000
,
01001000
00010000
00001000
00000100
,
00000010
00000000
00000000
00000010
00000000
00000000
00000020
00000000
00000000
00000000
00000000
00000000
00000030
00000000
00000000
00000000
,
00001000
00000001
00000001
00000001
,
00000100
00000010
00001000
00000000
00000100
00000010
00000001
00000000
,
00000100
00001000
00010000
01000000
,
10000000
00100000
01000000
00000000
00010000
00100000
01000000
00000000
,
00010000
00001000
00010000
00100000
,
10000000
00010000
01000000
00000000
00010000
00100000
01000000
00000000
,
10000000
00010000
01100000
01010000
,
10000000
00010000
10010000
00000000
00000000
00000000
00100000
00000000
,
10000000
00010000
00000000
00000000
22000000
00000000
33000000
00000000
,
10010000
00100000
00001000
00001000
,
00010000
00001000
00000000
00000000
00020200
00000000
00030300
00000000
,
00001001
00000000
00000100
00000010
00000100
00000000
00000001
00000000
,
00000100
00000001
00000110
00001100
,
00000010
00000000
00000000
00000000
00000001
00000000
00000000
00000000
00000010
00000000
00000000
00000001
00000000
00000000
00000100
00000000
,
00000100
00001000
00011000
01001000
,
00010000
00000000
00100000
01000000
00100000
00000000
00010000
00000000
,
10000000
01000000
00110000
00101000
,
00010000
00001000
00011000
00000000
00000000
00000000
00000100
00000000
,
00000010
00000100
00000000
00000000
00000022
00000000
00000033
00000000
,
00001001
00000010
00000001
00000001
,
00000100
00001000
00000000
00000000
00020200
00000000
00030300
00000000
,
00011000
00010000
01000000
01000000
,
10000000
00010000
10000000
00000000
00010000
00100000
00010000
00000000
,
11000000
00000000
00000000
00000000
;

//---------------dance-double - ----------------
#NOTES:
     dance-double:
     :
     Easy:
     2:
     0.167,0.190,0.072,0.041,0.000:
00000000
00000000
00000000
00000000
,
00000000
00000000
00000000
00000000
,
00000000
00000000
00000000
00000000
,
00000000
00000000
00000000
00000000
,
00000100
00000000
00000000
00001000
,
00000001
00001000
00000000
00000000
,
00000010
00000100
00001000
00000000
,
00000001
00001000
00000001
00000000
,
00001000
00000000
00000000
00000000
,
00010000
00000000
01000000
00000000
,
10000000
00000000
00000000
00000000
,
00100000
01000000
01100000
00000000
,
00010000
00000000
00000000
00000000
,
00001000
00000000
00000100
00000000
,
00000001
00000000
00001001
00000000
,
00001000
00000000
00001001
00000000
,
00000010
00000000
00000010
00000000
,
00000001
00000010
00001000
00010000
,
00100000
00100000
00100000
00000000
,
10000000
00100000
10000000
00000000
,
01000000
00000000
01000000
00000000
,
10000000
00100000
00010000
00001000
,
00000100
00000100
00000100
00000000
,
00000001
00000000
00000001
00000000
,
00000010
00000010
00000010
00000000
,
00000001
00001000
00000001
00000000
,
00000100
00000100
00000100
00000000
,
00010000
00001000
00010000
00000000
,
01000000
10000000
10000000
00000000
,
00010000
00100000
01000000
00000000
,
01100000
00000000
00000000
00000000
,
10000000
00000000
00200000
00300000
,
01000000
00000000
01000000
00000000
,
00010000
00000000
00002000
00003000
,
00010000
00000000
00001000
00000000
,
00000010
00000001
00000010
00000000
,
00000100
00001000
00000001
00000000
,
00000100
00000100
00000100
00000000
,
00000010
00000001
00000100
00000000
,
00001000
00010000
00001000
00000000
,
00100000
00000000
00100000
00000000
,
00100000
00000000
00020000
00030000
,
10010000
00000000
01000000
00000000
,
00100000
00000000
20000000
30000000
,
10010000
00000000
01000000
00000000
,
00010000
00000000
00001000
00000000
,
00000110
00000000
00000000
00000000
;
