#TITLE:WISH;
#SUBTITLE:(EUROBEAT MIX);
#ARTIST:DJ YOSHITAKA feat.杉村ことみ;
#TITLETRANSLIT:WISH (EUROBEAT MIX);
#SUBTITLETRANSLIT:;
#ARTISTTRANSLIT:DJ YOSHITAKA feat. Sugimura Kotomi;
#CREDIT:;
#BANNER:WISH (EUROBEAT MIX).png;
#BACKGROUND:WISH (EUROBEAT MIX)-bg.png;
#LYRICSPATH:;
#CDTITLE:beatmania IIDX.png;
#MUSIC:WISH (EUROBEAT MIX).mp3;
#OFFSET:-0.028;
#SAMPLESTART:49.161;
#SAMPLELENGTH:14.000;
#SELECTABLE:YES;
#DISPLAYBPM:155.000;
#BPMS:0.000=155.000;
#STOPS:;
#BGCHANGES:-0.850=WISH (EUROBEAT MIX).avi=1.000=0=0=1
,260.000=WISH (EUROBEAT MIX)-bg.png=1.000=1=0=1
;

//---------------dance-single - ----------------
#NOTES:
     dance-single:
     :
     Beginner:
     1:
     0.123,0.273,0.047,0.019,0.000: // measure 1
0000
0000
0000
0000
,  // measure 2
0000
0000
0000
0000
,  // measure 3
0000
0000
0000
0000
,  // measure 4
0000
0000
0000
0000
,  // measure 5
0001
0000
0000
0001
,  // measure 6
0000
0000
0000
0000
,  // measure 7
0000
0000
0000
0000
,  // measure 8
1001
0000
0000
0000
,  // measure 9
1000
0000
1000
0000
,  // measure 10
0001
0000
0000
0000
,  // measure 11
0010
0000
0010
0000
,  // measure 12
0001
0000
0000
0000
,  // measure 13
1000
0000
1000
0000
,  // measure 14
0010
0000
0000
0000
,  // measure 15
0100
0000
0100
0000
,  // measure 16
0001
0000
0000
0000
,  // measure 17
1000
0000
0000
0000
,  // measure 18
0001
0001
0001
0000
,  // measure 19
0001
0000
0000
0000
,  // measure 20
0000
0000
0010
0010
,  // measure 21
0010
0000
0000
0000
,  // measure 22
0100
0000
0100
0000
,  // measure 23
0100
0000
0000
0000
,  // measure 24
1000
0000
0010
0000
,  // measure 25
1000
0000
0000
0000
,  // measure 26
0001
0000
0000
0000
,  // measure 27
0100
0000
0000
0000
,  // measure 28
0010
0000
0000
0000
,  // measure 29
1000
0000
0000
0000
,  // measure 30
0001
0000
0001
0001
,  // measure 31
0001
0000
0000
0000
,  // measure 32
1001
0000
0000
0000
,  // measure 33
1000
0000
0000
0000
,  // measure 34
0001
0000
0000
0000
,  // measure 35
1000
0000
0000
0000
,  // measure 36
0001
0001
0001
0001
,  // measure 37
0001
0000
0000
0000
,  // measure 38
0010
0000
0000
0000
,  // measure 39
0100
0000
0000
0000
,  // measure 40
1000
0000
0000
0000
,  // measure 41
0002
0000
0000
0000
,  // measure 42
0000
0000
0003
0000
,  // measure 43
2000
0000
0000
0000
,  // measure 44
0000
0000
3000
0000
,  // measure 45
0010
0000
0010
0000
,  // measure 46
0010
0000
0010
0000
,  // measure 47
0010
0000
0000
0000
,  // measure 48
0100
0000
0000
0000
,  // measure 49
0001
0000
0000
0000
,  // measure 50
1000
0000
0000
0000
,  // measure 51
0001
0000
0000
0000
,  // measure 52
0010
0010
0010
0000
,  // measure 53
0100
0000
0000
0000
,  // measure 54
0010
0000
0000
0000
,  // measure 55
0100
0000
0000
0000
,  // measure 56
1000
0000
0000
0000
,  // measure 57
0010
0000
0010
0000
,  // measure 58
0010
0000
0010
0000
,  // measure 59
0100
0000
0100
0000
,  // measure 60
0100
0000
0000
0000
,  // measure 61
0001
0000
0001
0000
,  // measure 62
0001
0000
0001
0000
,  // measure 63
1000
0000
1000
0000
,  // measure 64
1000
0000
1001
1001
,  // measure 65
1001
0000
0000
0000
;

//---------------dance-single - ----------------
#NOTES:
     dance-single:
     :
     Hard:
     9:
     0.560,0.577,0.161,0.047,0.280:
0000
0000
0000
0000
,
0000
0000
0000
0000
,
0000
0000
0000
0000
,
0000
0000
0000
0000
,
0000
0000
0000
0000
,
0000
0000
0000
0000
,
0000
0000
0000
0000
,
1001
0000
0000
0000
0000
0000
0000
0000
0001
0100
0000
0001
0100
0000
0010
0000
,
1000
0010
1000
0000
1000
0000
0001
0010
0001
0000
0100
0000
0100
0000
0000
0000
,
0001
0100
0001
0000
0001
0000
0010
0000
0100
0000
0000
0000
0000
0000
0000
0000
,
1000
0010
1000
0000
1000
0000
0001
0100
0001
0000
0100
0000
0100
0000
0000
0000
,
0001
0010
0100
1000
0000
0010
0100
0001
,
0010
0100
0010
0000
0010
0000
0001
1000
0001
0000
0100
0000
0100
0000
0000
0000
,
0010
1000
0010
0000
0010
0000
1000
0000
0001
0000
0000
0000
0000
0000
0000
0000
,
0001
0010
0001
0000
0001
0000
1000
0100
1000
0000
0010
0000
0010
0000
0000
0000
,
0010
1000
0001
0100
0000
0010
0100
0001
,
1000
0100
1000
0100
0001
0100
0001
0100
,
1000
0100
1000
0100
1000
0010
1000
0010
,
0001
0010
0001
0010
1000
0010
1000
0100
,
0010
0000
0000
0000
1001
1001
1001
1001
,
1000
0010
0100
0001
1000
0010
0100
0001
,
0010
0001
1000
0100
0010
0001
1000
0100
,
0000
0000
0001
0100
0000
0000
1000
0010
,
0000
0000
0000
1000
0010
0100
0001
0000
,
1001
1001
0000
1001
0000
0010
0100
1000
,
0010
1000
0001
0100
0010
1000
0001
0000
,
1001
1001
0000
1001
0000
0010
0100
1000
,
0010
1000
0001
0100
0010
1000
0001
0100
,
0002
0100
0103
0000
0002
0100
0103
0000
,
2000
0010
3010
0000
2000
0010
3010
0000
,
0001
0000
0010
0000
0000
0001
0010
0100
,
1100
0000
0000
0000
0101
0000
0000
0000
1010
0000
0000
0000
0001
0010
0100
1000
,
0001
0000
0100
0000
0010
0000
1000
0001
0000
1000
0001
0000
0010
0000
0100
0000
,
1000
0000
0010
0000
0100
0000
0001
0010
0000
0001
0010
0000
0100
0000
1000
0000
,
0010
0000
0100
0000
0001
0000
1000
0100
0000
1000
0100
0000
1000
0000
0010
0000
,
0100
0001
0010
0100
0000
0100
1000
0001
,
0100
0000
0010
0000
1000
0000
0100
0010
0000
0100
0010
0000
0001
0000
1000
0000
,
0010
0000
0100
0000
0001
0000
0010
0100
0000
0010
0100
0000
1000
0000
0010
0000
,
0100
0000
0001
0000
0010
0000
0100
0010
0000
0100
0010
0000
0001
0000
1000
0000
,
0010
0100
0001
1000
0000
1000
0010
0100
,
0010
0000
0000
0010
0000
0000
0010
0000
1000
0000
0000
0001
0000
0000
0100
0000
,
0010
0000
1000
0100
0000
0010
0000
0001
,
1000
0000
0000
0010
0000
0100
0000
0002
,
0000
0000
0000
0000
0000
0003
1000
0010
,
0100
0000
0000
0100
0000
0000
0001
0000
0000
0001
0000
0000
0010
0000
0000
0010
,
0000
0000
0100
0000
0000
0100
0000
0000
1000
0000
0000
0010
0000
0000
0100
0000
,
0001
0000
0000
0010
0000
0000
0100
0000
1000
0000
0000
0100
0000
0000
0010
0000
,
0001
0000
0000
0100
0000
0000
0010
0000
1000
0000
0000
0001
0000
0000
0100
0000
,
0010
0000
0000
1000
0000
0000
0001
0000
0000
0000
0100
0000
0010
0000
0000
0000
,
1000
0000
0000
0100
0000
0000
0010
0000
0000
0000
0001
0000
1000
0000
0000
0000
,
0010
0000
0000
0100
0000
0000
0001
0000
0000
0000
1000
0000
0010
0000
0000
0000
,
1000
0100
0001
0100
0000
1000
0010
0100
,
0001
0000
0000
1000
0000
0000
0100
0000
0000
0000
0010
0000
0001
0000
0000
0000
,
1000
0000
0000
0010
0000
0000
0100
0000
0000
0000
0001
0000
1000
0000
0000
0000
,
0001
0000
0000
0010
0000
0000
0100
0000
0000
0000
1000
0000
0001
0000
0000
0000
,
0110
0000
0000
0000
0000
0000
0000
0000
1000
0010
0000
1000
0010
0000
0100
0000
,
0001
0000
0010
0000
1000
0000
0010
0001
0000
0010
0001
0000
0100
0000
1000
0000
,
0100
0000
0010
0000
1000
0000
0100
0001
0000
0100
0001
0000
0100
0000
1000
0000
,
0010
0000
0100
0000
1000
0000
0100
0010
0000
0100
0010
0000
1000
0000
0100
0000
,
0001
1000
0001
0100
0000
1000
0010
0100
,
0001
0000
0010
0000
1000
0000
0010
0100
0000
0010
0100
0000
1000
0000
0010
0000
,
0001
0000
0010
0000
1000
0000
0001
0010
0000
0001
0010
0000
0100
0000
1000
0000
,
0010
0000
0001
0000
0010
0000
0100
0001
0000
0100
0001
0000
0010
0000
0100
0000
,
1001
0000
0000
0000
0000
0000
0000
0000
0001
1000
0000
1000
0001
0000
1000
0000
,
0110
0000
0000
0000
;

//---------------dance-single - ----------------
#NOTES:
     dance-single:
     :
     Medium:
     6:
     0.384,0.425,0.085,0.057,0.024:
0000
0000
0000
0000
,
0000
0000
0000
0000
,
0000
0000
0000
0000
,
0000
0000
0000
0000
,
0001
0000
0000
0001
0000
0000
0001
0000
0000
0000
1000
0000
0001
0000
0000
0000
,
0000
0000
0000
0000
,
0000
0000
0000
0000
,
0001
0010
0100
1000
0000
1000
0001
0000
,
0010
0100
1000
0000
0010
0100
1000
0000
,
0010
0100
0001
0100
0020
0000
0030
0000
,
0010
1000
0100
0000
0010
1000
0100
0000
,
1000
0010
0100
0001
0000
0100
0010
1000
,
0001
0010
0100
0000
0001
0010
0100
0000
,
1000
0010
0100
0010
2000
0000
3000
0000
,
0001
0010
1000
0000
0001
0010
1000
0000
,
0010
0001
0100
0001
0000
1000
0010
1000
,
0001
0001
1000
1000
,
0010
0010
0100
0000
,
0010
0000
0010
0000
1000
0001
1000
0001
,
0100
0000
0000
0000
0010
0010
0010
0010
,
0010
1000
0001
0001
,
1000
0000
0100
0000
1000
0000
0010
0100
,
0000
0000
0100
0010
0000
0000
0010
0100
,
0000
0000
0000
0000
0010
1000
0100
1000
,
0100
0100
0100
0000
1000
0000
0100
0000
,
1000
0010
0100
0000
1000
0010
0100
0000
,
0001
0001
0001
0000
0100
0000
0001
0000
,
0100
0001
0010
0000
0100
0001
0010
0000
,
1000
0100
0001
0100
,
1000
0000
0000
0000
0010
1000
0100
0000
,
0110
1001
0101
0010
,
1100
1100
1100
0000
,
0010
0010
0010
0000
1000
0000
0010
0000
,
0100
0100
0100
0000
0001
0000
0100
0000
,
0001
0001
0001
0000
1000
0000
0001
0000
,
0010
0000
0010
0000
,
0100
0100
0100
0000
1000
0000
0100
0000
,
1000
1000
1000
0000
0001
0000
1000
0000
,
0010
0010
0010
0000
0100
0000
0010
0000
,
1001
0000
1001
1001
,
0010
0010
0010
1000
,
0100
0000
0010
0001
0000
0100
0000
0010
,
2000
0000
0000
3020
0000
0230
0000
0302
,
0000
0000
0000
0000
0000
0000
0000
0003
,
1000
1000
0100
0010
,
0010
0001
0100
0001
,
1000
0000
0000
1000
0000
0000
1000
0000
0001
0000
0000
0001
0000
0000
0001
0000
,
0100
0000
0000
0100
0000
0000
0100
0000
0001
0000
0000
0001
0000
0000
0001
0000
,
0010
0010
0010
0000
,
0010
0010
0010
0000
,
0010
0010
0010
0000
,
0001
0100
1000
0100
,
0001
0001
0001
0000
,
1000
1000
1000
0000
,
0010
0100
0010
1000
,
0001
0000
0001
0001
,
1000
0100
1000
0000
0100
0000
0001
0000
,
1000
0010
1000
0000
0010
0000
0001
0000
,
0100
0010
0100
0000
0001
0000
1000
0000
,
0100
1000
0100
1000
0000
0100
1000
0100
,
0010
0001
0010
0000
0100
0000
1000
0000
,
0010
0100
0010
0000
1000
0000
0001
0000
,
0010
0100
0010
0000
0100
0000
1000
0000
,
0010
0000
0000
0000
0100
0010
0100
0010
,
0100
0000
0000
0000
;

//---------------dance-single - ----------------
#NOTES:
     dance-single:
     :
     Easy:
     4:
     0.273,0.304,0.095,0.000,0.000:
0000
0000
0000
0000
,
0000
0000
0000
0000
,
0000
0000
0000
0000
,
0000
0000
0000
0000
,
0001
0001
0001
0000
,
0000
0000
0000
0000
,
0001
0010
0100
1000
,
0010
0000
0010
0010
,
1000
0100
0001
0100
,
1000
0010
0001
0000
,
1000
0100
0001
0100
,
1000
0000
1000
1000
,
1000
0010
0001
0010
,
1000
0100
0001
0000
,
1000
0010
0001
0010
,
1000
0000
1000
1000
,
0001
0010
0001
0010
,
0100
0100
1000
0000
,
0010
0000
1000
0001
,
0100
0000
0110
0110
,
0110
0000
1000
0001
,
0100
0100
0001
0010
,
0100
0000
0100
0000
,
0100
0000
1000
1000
,
1000
0000
0000
0000
,
0010
0000
0100
0100
,
0100
0000
0000
0000
,
0001
0000
0000
0000
,
0010
0001
0100
1000
,
0010
0001
0100
0000
,
0100
0001
0010
1000
,
0100
0001
0010
0000
,
1000
0101
1000
0000
,
0001
1100
0001
0000
,
0010
1001
0100
0000
,
0010
1000
0100
0001
,
0010
1001
0100
0000
,
1000
0110
0001
0000
,
1000
0011
1000
0000
,
0010
0000
0010
0010
,
1000
0100
0001
0100
,
1000
0010
0100
0001
,
0010
0000
0100
0000
,
1000
0000
0000
0000
,
0010
0010
0100
0010
,
0010
0100
0001
0010
,
0100
1000
0001
0100
,
0010
1000
0100
0000
,
1000
1000
1000
0000
,
0001
0001
0001
0000
,
0100
0100
0100
0000
,
0010
1000
0010
1000
,
0100
0100
0100
0000
,
1000
1000
1000
0000
,
0001
0001
0001
0000
,
1001
0000
0010
0010
,
1000
0100
1000
0100
,
0010
0001
0010
0001
,
0100
0001
0100
0001
,
1000
0100
0001
0100
,
1000
0010
1000
0010
,
0100
0001
0100
0001
,
0010
0001
0100
0001
,
0010
0000
0010
0100
,
0010
0000
0000
0000
;
