#TITLE:WILLY USE A BILLY... BOY;
#SUBTITLE:(DJ Tora aka Arpeggio Remix);
#ARTIST:E-ROTIC;
#TITLETRANSLIT:;
#SUBTITLETRANSLIT:;
#ARTISTTRANSLIT:;
#CREDIT:;
#BANNER:WILLY USE A BILLY... BOY (DJ Tora aka Arpeggio Remix).png;
#BACKGROUND:WILLY USE A BILLY... BOY (DJ Tora aka Arpeggio Remix)-bg.png;
#LYRICSPATH:;
#CDTITLE:HIME TRANCE.png;
#MUSIC:WILLY USE A BILLY... BOY (DJ Tora aka Arpeggio Remix) - E-ROTIC.mp3;
#OFFSET:-6.660;
#SAMPLESTART:29.762;
#SAMPLELENGTH:12.000;
#SELECTABLE:YES;
#BPMS:0.000=145.000;
#STOPS:;
#BGCHANGES:;

//---------------dance-single - ----------------
#NOTES:
     dance-single:
     :
     Hard:
     7:
     0.429,0.453,0.068,0.000,0.204: // measure 1
0000
0000
0010
0000
0000
0100
0000
0000
,  // measure 2
0000
0000
1000
0000
0000
0001
0000
0000
,  // measure 3
0100
0000
0001
0000
,  // measure 4
1000
0001
0100
0001
,  // measure 5
1001
0100
0010
1000
,  // measure 6
0100
0100
1000
0001
,  // measure 7
0101
1000
0100
0010
,  // measure 8
0100
1000
0001
0010
,  // measure 9
1100
0001
1100
0001
,  // measure 10
0100
0100
0010
1000
,  // measure 11
0010
0010
0010
0010
,  // measure 12
0010
1000
0001
0010
0100
1000
0010
1000
,  // measure 13
0100
0010
0000
0001
0000
1000
0000
0100
,  // measure 14
0000
1000
0000
0010
0000
0000
0000
0000
,  // measure 15
0000
0000
0000
0000
,  // measure 16
0100
0000
0000
0010
1000
0000
0100
0000
1000
0000
0000
0000
0001
0000
0000
0000
,  // measure 17
0100
0000
0000
0010
1000
0000
0100
0000
0010
0000
0001
0000
0100
0000
0010
0000
,  // measure 18
1000
1000
0100
0100
,  // measure 19
1000
0000
0101
0000
1000
0001
0100
0001
,  // measure 20
0010
0000
0000
0001
0100
0000
0010
0000
1000
0000
0000
0000
0100
0000
0000
0000
,  // measure 21
1000
0000
0000
0001
0100
0000
0010
0000
1000
0000
0100
0000
0010
0000
0001
0000
,  // measure 22
1000
1000
0010
0010
,  // measure 23
1000
0010
1000
0001
0010
0100
0010
0001
,  // measure 24
0100
0000
0000
0010
1000
0000
0100
0000
1000
0000
0000
0000
0100
0000
0000
0000
,  // measure 25
0010
0000
0000
0001
0100
0000
0010
0000
0100
0000
0001
0000
0010
0000
0100
0000
,  // measure 26
1000
1000
0100
0100
,  // measure 27
1000
0000
0110
0000
0001
0010
0100
0010
,  // measure 28
0001
0000
0000
0100
0010
0000
1000
0000
0100
0000
0000
0000
1000
0000
0000
0000
,  // measure 29
0100
0000
0000
0010
0001
0000
0100
0000
0010
0000
1000
0000
0100
0000
1000
0000
,  // measure 30
0001
0001
0100
0100
,  // measure 31
0010
1000
0010
1000
0100
0010
0001
0000
,  // measure 32
0100
0000
0000
0000
0001
0000
0000
0000
1000
0000
0000
0100
0000
1000
0010
0000
,  // measure 33
0100
0000
0000
0000
0001
0000
0000
0000
0010
0000
0000
0001
0000
1000
0100
0000
,  // measure 34
1000
0000
0000
0000
0001
0000
0000
0000
0100
0000
0000
0001
0000
0010
0001
0000
,  // measure 35
1000
0000
0000
0000
0100
0000
0000
0000
0010
0000
0000
0001
0000
0100
0010
0000
,  // measure 36
1000
0000
0000
0000
0100
0000
0000
0000
1000
0000
0000
0010
0000
0100
0001
0000
,  // measure 37
0010
0000
0000
0000
0001
0000
0000
0000
0100
0000
0000
0010
0000
1000
0100
0000
,  // measure 38
1000
0000
0000
0000
0001
0000
0000
0000
0100
0000
0000
0010
0000
1000
0100
0000
,  // measure 39
0010
0001
0100
0100
,  // measure 40
0001
0000
0100
0000
0001
0000
0000
0000
1000
0000
0100
0010
0000
0100
1000
0000
,  // measure 41
0010
0000
0000
0000
0100
0000
0000
0000
0001
0000
0010
0001
0000
0100
0001
0000
,  // measure 42
1000
0000
0000
0000
0010
0000
0000
0000
1000
0000
0100
0010
0000
0001
0100
0000
,  // measure 43
0010
0000
0000
0000
1000
0000
0000
0000
0100
0000
1000
0010
0000
0100
0001
0000
,  // measure 44
0010
0000
0100
0000
1000
0000
0000
0000
0010
0000
1000
0100
0000
0010
0001
0000
,  // measure 45
0100
0000
0010
0000
1000
0000
0000
0000
0100
0000
0010
1000
0000
0100
1000
0000
,  // measure 46
0001
0000
0100
0000
0001
0000
0000
0000
0010
0000
0100
1000
0000
0010
0100
0000
,  // measure 47
0001
0010
0001
0100
0010
1000
0100
0000
,  // measure 48
0010
0000
0000
0000
;

//---------------dance-single - ----------------
#NOTES:
     dance-single:
     :
     Easy:
     3:
     0.258,0.293,0.136,0.011,0.000:
0000
1001
0000
0000
,
0000
0100
0000
0000
,
1001
0000
0001
0000
,
1000
0001
0100
0001
,
1000
0000
1000
0000
,
0001
0100
0001
0000
,
1000
0000
0100
0000
,
1000
0001
0010
0001
,
0100
0000
0010
0000
,
1000
0100
1000
0001
,
0100
0100
0100
0010
,
1000
0001
0100
0010
,
2000
0000
0000
0000
,
0000
0000
0000
0000
,
3001
0000
0000
0000
,
1001
0010
0100
0000
,
1001
1000
0100
0000
,
0001
0100
0001
1000
,
0010
0010
1000
0001
,
1001
1000
0000
1000
,
1001
0001
0000
1000
,
0100
0100
1000
0001
,
0010
0001
0100
0010
,
0110
0001
0000
1000
,
0110
0001
0000
1000
,
0100
0100
0010
0001
,
0010
0001
1000
1001
,
0001
0000
0000
1000
,
1001
0001
0000
1000
,
0100
0001
0100
1000
,
0010
0000
0100
0000
,
0001
1000
0001
0000
,
0001
1000
0100
0000
,
0100
1000
0010
0000
,
0010
0100
0001
0000
,
0001
1000
0100
0000
,
0100
1000
0010
0000
,
0010
0100
0001
0000
,
0001
1000
0001
1000
,
0001
0001
0100
0010
,
1000
1000
0100
1000
,
0001
0001
0010
0001
,
0100
0100
0010
1000
,
1001
0010
0100
0001
,
0110
0001
1000
0100
,
0001
0100
1000
0010
,
0100
0001
1000
0010
,
1000
0000
0000
0000
;

//---------------dance-single - Copied from----------------
#NOTES:
     dance-single:
     Copied from:
     Medium:
     6:
     0.376,0.373,0.113,0.000,0.091:
0000
0000
0100
0000
0000
1000
0000
0000
,
0000
0000
0001
0000
0000
0001
0000
0000
,
1000
0000
0100
0000
,
1000
1000
0001
1000
,
1001
0001
0001
0001
,
0101
0001
0001
1000
,
1100
0100
0100
0100
,
1001
0010
0100
0100
,
0101
0010
0101
0010
,
1000
1000
0001
0010
,
0011
0001
0001
0001
,
0001
1000
0100
1000
0001
1000
0010
0100
,
0001
0001
0001
0001
,
1000
0000
0000
0000
,
1001
0000
0000
0000
,
1000
0000
0000
0001
0000
0000
1000
0000
0001
0000
0000
0000
0100
0000
0000
0000
,
0010
0000
0000
1000
0000
0000
0010
0000
1000
0000
0000
0000
0001
0000
0000
0000
,
0100
0100
0010
1000
,
0100
1010
1000
0001
,
0100
0000
0000
0010
0000
0000
1000
0000
0001
0000
0000
0000
0010
0000
0000
0000
,
0001
0000
0000
0100
0000
0000
0010
0000
1000
0000
0000
0001
0000
0000
0000
0000
,
0100
0100
0010
1000
,
0001
1000
0100
0010
0001
0100
0010
1000
,
0001
0000
0000
0100
0000
0000
0010
0000
1000
0000
0000
0000
0100
0000
0000
0000
,
1000
0000
0000
0001
0000
0000
0010
0000
0001
0000
0000
0000
1000
0000
0000
0000
,
0100
0100
1000
0001
,
0100
0101
0010
0100
,
0001
0000
0000
1000
0000
0000
0010
0000
1000
0000
0000
0000
0100
0000
0000
0000
,
0010
0000
0000
0001
0000
0000
0100
0000
0010
0000
0000
0000
1000
0000
0000
0000
,
0100
0000
0100
0000
1000
0010
0100
0000
,
0001
1000
0100
1000
0001
1000
0010
0000
,
0100
0000
0100
0000
0001
0100
0010
1000
,
0100
0000
0100
0000
1000
0001
1000
0001
,
0010
0000
0010
0000
0001
1000
0100
1000
,
0010
0000
0010
0000
1000
0001
0100
0010
,
0100
0000
0100
0000
0001
1000
0010
1000
,
0010
0000
0010
0000
1000
0100
0010
0001
,
0100
0000
0100
0000
0001
0010
0100
1000
,
0001
0100
0010
0010
,
1000
0000
0000
0000
0001
0000
0000
0000
0100
0000
0000
0010
0000
0000
1000
0000
,
0001
0000
0000
0000
0100
0000
0000
0000
0010
0000
0000
1000
0000
0000
0100
0000
,
0010
0000
0000
0000
0001
0000
0000
0000
0100
0000
0000
0010
0000
0000
1000
0000
,
0001
0000
0000
0000
0100
0000
0000
0000
0010
0000
0000
0100
0000
0000
1000
0000
,
0010
0000
0000
0000
0100
0000
0000
0000
0001
0000
0000
0010
0000
0000
0001
0000
,
0100
0000
0000
0000
0010
0000
0000
0000
1000
0000
0000
0100
0000
0000
1000
0000
,
0001
0000
0000
0000
0100
0000
0000
0000
0010
0000
0000
1000
0000
0000
0001
0000
,
1000
0010
0100
0001
0100
0010
1000
0100
,
0001
0000
0000
0000
;
