#TITLE:WHEN YOU WERE YOUNG;
#SUBTITLE:(Almighty Mix);
#ARTIST:BELLE LAWRENCE;
#TITLETRANSLIT:;
#SUBTITLETRANSLIT:;
#ARTISTTRANSLIT:;
#CREDIT:;
#BANNER:WHEN YOU WERE YOUNG (Almighty Mix).png;
#BACKGROUND:WHEN YOU WERE YOUNG (Almighty Mix)-bg.png;
#LYRICSPATH:;
#CDTITLE:WHEN YOU WERE YOUNG.png;
#MUSIC:WHEN YOU WERE YOUNG (Almighty Mix).mp3;
#OFFSET:-3.049;
#SAMPLESTART:45.784;
#SAMPLELENGTH:13.000;
#SELECTABLE:YES;
#DISPLAYBPM:134.000;
#BPMS:0.000=134.000;
#STOPS:;
#BGCHANGES:;

//---------------dance-single - ----------------
#NOTES:
     dance-single:
     :
     Hard:
     7:
     0.430,0.476,0.173,0.027,0.109:
0000
0000
0000
0000
,
0000
0000
0000
0000
,
0000
0000
0000
0000
,
0000
0000
0000
0000
,
1000
0000
0000
0001
0000
0000
0100
0000
0001
0000
0000
0010
0000
0000
0100
0000
,
1000
0000
0000
0100
0000
0000
0001
0000
0100
0000
0000
1000
0000
0000
0010
0000
,
0100
0000
0000
0001
0000
0000
0010
0000
0100
0000
0000
1000
0000
0000
0010
0000
,
0100
0000
0000
0001
0000
0000
1000
0000
0001
0010
0000
0001
0000
0000
0010
0000
,
0001
0010
0100
1000
0000
0010
0000
0110
,
0000
0000
0000
0001
0001
0000
0000
0000
,
1000
0010
0100
0001
0000
1000
0000
0001
,
0010
0000
0000
0100
0000
0000
1000
0000
0100
0000
0000
0010
0000
0000
0001
0000
,
1000
0001
0100
0010
0000
1000
0000
1100
,
0000
0000
0000
0001
0001
0000
0000
0000
,
0001
1000
0100
0010
0000
0001
0000
1000
,
0010
0000
0000
0100
0000
0000
0001
0000
0100
0000
0000
0010
0000
0000
1000
0000
,
0001
0000
1000
0001
0100
0000
0001
1000
,
0010
0100
0001
0000
,
0010
0000
0100
1000
0001
0000
0100
0000
,
0010
0000
0000
1000
0000
0000
0001
0000
0010
0000
0100
0000
1000
0000
0000
0000
,
0000
0000
0001
1000
0100
0000
1000
0000
,
0010
0110
1001
0010
,
0100
0000
1000
0001
0100
0001
1000
0000
,
0010
1000
0001
0000
0010
1000
0001
0000
,
0010
0001
0010
0100
1000
0100
0010
0000
,
0012
0000
0000
0103
0000
0000
0010
1000
,
0001
0010
0001
0010
0001
0010
0001
0000
,
0000
1000
0100
1000
0100
1000
0100
1000
,
0001
0010
0100
1000
0000
0010
0000
0000
,
0110
0000
0000
0001
0001
0000
0000
0000
,
0100
0010
1000
0001
0000
0010
0000
0100
,
1000
0000
0000
0100
0000
0000
0010
0000
0001
0000
0000
0010
0000
0000
0100
0000
,
1000
0010
0100
0001
0000
0010
0000
0011
,
0000
0000
0000
0001
0000
0010
0100
0000
,
1000
0001
0100
0010
0000
1000
0000
0001
,
0010
0000
0000
0001
0000
0000
0010
0000
0100
1000
0000
0100
2000
0000
0000
0000
,
3001
0010
0001
0010
0001
0010
0001
0010
,
0001
0010
0001
0010
0001
0010
0001
0010
,
0001
0010
0001
0010
0100
1000
0100
1000
,
0010
1000
0010
1000
0010
1000
0010
1000
,
0001
0100
0001
0100
0001
0100
0001
0100
,
0001
0100
0001
0100
0001
0100
0001
0100
,
0010
1000
0010
1000
0010
0100
0010
0100
,
0001
0010
0100
1000
0001
0010
0100
1000
,
0001
0100
0010
1000
0001
0000
0010
0000
,
0012
0000
0000
0103
0000
0000
0010
1000
,
0001
0100
0001
0100
0001
0100
0001
0000
,
1001
0000
0000
0000
0000
0000
0000
0000
0000
0000
0000
0000
1000
0100
1000
0100
,
1000
0010
0100
0001
0000
0010
0000
0000
,
0011
0000
0000
1000
1000
0000
0000
0000
,
0001
0100
0010
1000
0000
0001
0000
0010
,
0001
0000
0000
1000
0000
0000
0100
0000
1000
0000
0000
0001
0000
0000
0010
0000
,
0100
1000
0010
0100
0000
0001
0000
0101
,
0000
0000
0000
1000
0000
0010
0100
0000
,
0001
0010
0100
1000
0000
0001
0000
0101
,
1001
0000
0000
0000
1100
0000
0000
0010
0001
0000
0010
0000
0100
0000
1000
0000
,
1010
0000
0000
0101
0000
0000
1010
0000
,
0000
0011
0000
0000
0100
1000
0001
0000
,
1001
0000
0000
0000
;

//---------------dance-single - ----------------
#NOTES:
     dance-single:
     :
     Medium:
     5:
     0.321,0.344,0.237,0.000,0.000:
0000
0000
0000
0000
,
0000
0000
0000
0000
,
0000
0000
0000
0000
,
0000
0000
0000
0000
,
1000
0001
1000
0001
,
0100
0000
0100
0000
0001
0100
0001
0000
,
0010
0100
1000
0100
,
0010
0000
0010
0000
0001
1000
0001
0000
,
1000
0010
1000
0000
0001
0000
0100
0000
,
0101
0000
0000
1000
1000
0000
0000
0000
,
0001
0010
0001
0000
1000
0000
0100
0000
,
1100
0100
1000
0010
,
0100
0001
0100
0000
0010
0000
1000
0000
,
1010
0000
0000
0001
0001
0000
0000
0000
,
0001
1000
0001
0000
0010
0000
0100
0000
,
0110
0000
0000
0000
,
1000
1000
0001
0001
,
1000
0011
0101
0000
,
0001
0010
0100
1000
,
0010
0000
1000
0010
1000
0000
0001
0000
,
0000
0100
0001
0100
,
0010
1100
0101
0000
,
0001
0001
1000
1000
,
0010
1000
0010
0000
0100
0001
0100
0000
,
0001
0010
0100
1000
,
0001
0100
0001
0100
0001
0000
0000
0000
,
1000
0101
1010
0000
,
0001
0000
1100
0000
0011
0000
0100
1000
,
0100
0010
0001
0100
,
0101
0000
0000
1000
1000
0000
0000
0000
,
0001
0010
0001
0000
0010
0000
0100
0000
,
1000
0000
0000
0000
,
0010
1000
0010
0000
1000
0000
0100
0000
,
1100
1000
0010
0100
,
0010
0100
0010
0000
0100
0000
0001
0000
,
0010
0000
0000
0100
,
1000
0010
1000
0000
1000
0000
1000
0000
,
1000
0010
1000
0000
1000
0000
1000
0000
,
1000
0010
1000
0000
0001
1000
0001
0000
,
0010
0001
0010
0000
0010
0000
0010
0000
,
0100
1000
0100
0000
0100
0000
0100
0000
,
0100
1000
0100
0000
0100
0000
0100
0000
,
1000
0010
1000
0000
0001
0100
0001
0000
,
1000
0001
1000
0001
1000
0000
0000
0000
,
0001
0001
0010
0010
,
0001
0010
0001
0000
1000
0000
0100
0000
,
0000
1000
0010
0100
,
1001
0000
0000
0000
0000
0000
0001
0001
,
0010
0001
0010
0000
0100
0000
1000
0000
,
1001
0000
0000
0001
1000
0000
0000
0000
,
1000
0010
1000
0000
0001
0000
0100
0000
,
0101
0000
0000
0010
,
0100
1000
0100
0000
0010
0000
0001
0000
,
1001
0000
0101
1001
,
1000
0010
1000
0000
0001
0000
0010
0000
,
0011
0000
0000
0000
,
1001
0000
0000
0110
0000
0000
1001
0000
,
0000
0110
0000
0000
0001
0000
0010
0000
,
1100
0000
0000
0000
;

//---------------dance-single - ----------------
#NOTES:
     dance-single:
     :
     Easy:
     3:
     0.240,0.317,0.173,0.000,0.000:
0000
0000
0000
0000
,
0000
0000
0000
0000
,
0000
0000
0000
0000
,
0000
0000
0000
0000
,
1000
1000
0001
0001
,
0010
0010
0010
0000
,
0001
0001
1000
1000
,
0010
0010
0010
0000
,
1000
0100
1000
0001
,
0010
0000
0100
0100
0100
0000
0000
0000
,
1000
0010
1000
0001
,
0100
0000
0000
0000
,
0001
0010
1000
0010
,
0001
0000
1000
1000
1000
0000
0000
0000
,
0010
0100
0001
0100
,
0010
0000
0000
0000
,
0000
1000
1000
0001
,
0001
0010
0100
0000
,
0000
1000
0010
0100
,
0001
1000
0100
0001
,
0010
1000
1000
0001
,
0001
0010
0100
0000
,
1000
0010
1000
0000
,
0001
0001
1000
1000
,
0001
0010
0001
0000
,
1000
0000
1100
0000
,
0000
0001
0001
0000
,
0000
1000
1000
1000
,
0010
0000
0000
0100
,
0110
0000
0100
0000
,
0001
0010
0100
1000
,
0001
0000
0000
1000
,
1000
0000
0000
0010
,
0110
0000
1001
1001
,
1001
0000
0010
0100
,
0010
0000
0000
0001
,
1000
1000
1000
1000
,
1000
1000
1000
1000
,
1000
1000
0100
0100
,
0010
0010
0010
0010
,
0001
0001
0001
0001
,
0001
0001
0001
0001
,
0001
0001
0100
0100
,
0010
0010
0010
0010
,
1000
0100
1000
0000
,
0001
0000
0011
0000
,
0000
0100
0100
0000
,
1001
0000
0000
0000
,
1000
0010
1000
0000
,
0101
0000
0010
0000
,
1000
1000
0010
0010
,
1010
0000
0000
0000
,
0001
0001
1000
1000
,
1001
0000
0110
0110
,
0110
0000
0001
0010
,
0001
0000
0000
0000
,
1001
0000
0000
1001
0000
0000
1001
0000
,
0000
1001
0000
0000
0001
0000
1000
0000
,
1001
0000
0000
0000
;

//---------------dance-single - ----------------
#NOTES:
     dance-single:
     :
     Beginner:
     1:
     0.133,0.159,0.073,0.018,0.000: // measure 1
0000
0000
0000
0000
,  // measure 2
0000
0000
0000
0000
,  // measure 3
0000
0000
0000
0000
,  // measure 4
0000
0000
0000
0000
,  // measure 5
1000
0000
0001
0000
,  // measure 6
0010
0000
0000
0000
,  // measure 7
0001
0000
1000
0000
,  // measure 8
0010
0000
0000
0000
,  // measure 9
1000
0000
1000
0000
,  // measure 10
0010
0010
0010
0000
,  // measure 11
1000
0000
1000
0000
,  // measure 12
0100
0000
0000
0000
,  // measure 13
0001
0001
0001
0000
,  // measure 14
1000
0000
1000
0000
,  // measure 15
0010
0000
0000
0000
,  // measure 16
0000
0000
0000
0000
,  // measure 17
1000
0000
1000
0000
,  // measure 18
0000
0010
0010
0000
,  // measure 19
0000
1000
1000
0000
,  // measure 20
0001
0000
0001
0000
,  // measure 21
0001
0000
1000
0000
,  // measure 22
0000
0010
0010
0000
,  // measure 23
1000
0000
0000
0000
,  // measure 24
0001
0000
1000
0000
,  // measure 25
0001
0001
0001
0000
,  // measure 26
1000
0000
1001
0000
,  // measure 27
0000
0000
0001
0000
,  // measure 28
0000
1000
1000
1000
,  // measure 29
0000
0000
0000
0100
,  // measure 30
0100
0000
0100
0000
,  // measure 31
0001
0000
0001
0000
,  // measure 32
0001
0000
0000
0000
,  // measure 33
1000
0000
0000
0010
,  // measure 34
0010
0000
0000
0000
,  // measure 35
1001
0000
0000
0010
,  // measure 36
0010
0000
0000
1000
,  // measure 37
1000
0000
1000
0000
,  // measure 38
1000
0000
1000
0000
,  // measure 39
1000
0000
0100
0000
,  // measure 40
0010
0000
0010
0000
,  // measure 41
0001
0000
0001
0000
,  // measure 42
0001
0000
0001
0000
,  // measure 43
0001
0000
0100
0000
,  // measure 44
0010
0010
0010
0000
,  // measure 45
1000
0000
0000
0000
,  // measure 46
0001
0000
0001
0000
,  // measure 47
0000
0000
0100
0000
,  // measure 48
1001
0000
0000
0000
,  // measure 49
1000
0000
0000
0000
,  // measure 50
0001
0000
0010
0000
,  // measure 51
1000
0000
0000
0000
,  // measure 52
1001
0000
0000
0000
,  // measure 53
0001
0000
1000
0000
,  // measure 54
1001
0000
0000
0000
,  // measure 55
0110
0000
0001
0000
,  // measure 56
0001
0000
0000
0000
,  // measure 57
2002
0000
0000
0000
,  // measure 58
0000
0000
3003
0000
,  // measure 59
1001
0000
0000
0000
;
