#TITLE:UN MONDE PARFAIT;
#SUBTITLE:(dj ten remix);
#ARTIST:ILONA MITRECEY;
#TITLETRANSLIT:;
#SUBTITLETRANSLIT:;
#ARTISTTRANSLIT:;
#CREDIT:;
#BANNER:UN MONDE PARFAIT (DJ TEN Remix).png;
#BACKGROUND:UN MONDE PARFAIT (DJ TEN Remix)-bg.png;
#LYRICSPATH:;
#CDTITLE:KOAKUMA TRANCE.png;
#MUSIC:UN MONDE PARFAIT (DJ TEN Remix) - ILONA MITRECEY.mp3;
#OFFSET:-10.180;
#SAMPLESTART:50.280;
#SAMPLELENGTH:12.000;
#SELECTABLE:YES;
#BPMS:0.000=143.000;
#STOPS:;
#BGCHANGES:;

//---------------dance-single - ----------------
#NOTES:
     dance-single:
     :
     Hard:
     8:
     0.500,0.459,0.053,0.011,0.250:
0001
0000
0000
0001
0100
0000
0000
0000
0010
0000
1000
0000
0100
0000
0010
0000
,
0001
0000
0000
0001
0100
0000
0000
0000
0010
0000
1000
0000
0100
0000
0010
0000
,
0001
0100
0010
0100
0001
0100
0001
0100
,
1000
0100
1000
0100
0010
0100
0010
0100
,
1000
0100
0001
0100
1000
0100
0001
0100
,
1000
0010
0100
0001
0010
0100
1000
0010
,
0200
0000
0000
0000
,
0301
0000
0000
0000
,
0000
0010
0100
1000
0010
0100
0001
1000
,
0010
1000
0100
0010
0001
0100
0010
1000
,
0000
0100
0010
0001
0100
0010
1000
0100
,
0010
0000
0100
1000
0010
0000
0000
0000
,
0000
0001
0010
0100
1000
0001
0100
0010
,
1000
0010
1000
0100
0010
0001
0100
0010
,
0000
1000
0001
0010
0100
1000
0010
0100
,
0001
0000
1000
0100
1000
0000
0000
0000
,
0001
0000
1000
1000
0100
0000
1000
0000
,
1010
0000
0001
0000
0100
0100
0001
0000
,
0010
0000
0001
0001
0100
0000
0001
0000
,
1010
0000
0001
0000
1000
1000
0010
0000
,
0100
0000
0001
0100
1001
0000
0010
0000
,
0101
0000
0001
0000
1000
0010
1100
0000
,
0000
0001
0100
0010
1000
0100
0010
0001
,
0100
0000
0010
1000
0100
0000
0000
0000
,
1000
0010
0000
0010
0100
0000
0000
0000
0001
1000
0000
1000
0100
0000
0000
0000
,
0010
0001
0000
0001
0100
0000
0000
0000
0010
1000
0000
1000
0100
0000
0000
0000
,
0000
0010
0001
0100
0010
1000
0100
1000
,
0010
0000
0100
0001
0010
0100
1000
0010
,
1000
0100
0000
0100
0010
0000
0000
0000
0001
0100
0000
0100
0010
0000
0000
0000
,
1000
0100
0000
0100
0010
0000
0000
0000
0001
0100
0000
0100
0010
0000
0000
0000
,
0000
0001
1000
0100
0010
0001
0100
0010
,
1000
0000
0010
0100
0001
0010
0100
1000
,
0010
0100
0000
0100
0001
0000
0010
0000
0001
0100
0000
0100
0010
0000
1000
0000
,
0100
0010
0000
0010
0001
0000
0100
0000
0010
0000
1000
0000
0100
0000
0000
0000
,
0000
0010
0100
1000
0010
0100
0001
0100
,
0010
0000
1000
0100
0010
0001
0100
0010
,
1000
0100
0000
0100
0010
0000
0001
0000
0100
0010
0000
0010
1000
0000
0100
0000
,
0010
0001
0000
0001
0100
0000
0010
0000
1000
0000
0100
0000
1000
0000
0000
0000
,
0000
0001
0100
0000
,
0010
0000
0001
0100
0010
0000
0000
0000
,
1000
0000
0000
1000
0100
0000
0000
0100
1000
0000
0010
0000
0100
0000
0001
0000
,
0010
0000
0000
0010
0001
0000
0000
0001
0100
0000
0010
0000
1000
0000
0100
0000
,
0010
0000
0000
0010
0001
0000
0000
0001
0100
0000
0010
0000
1000
0000
0100
0000
,
0010
0000
0000
0010
0100
0000
0000
0100
1000
0000
0010
0000
1000
0000
0100
0000
,
0010
0000
0000
0010
0001
0000
0000
0001
0100
0000
0010
0000
1000
0000
0100
0000
,
1000
0000
0000
1000
0010
0000
0000
0010
0100
0000
0001
0000
0010
0000
0001
0000
,
1000
0000
0000
1000
0001
0000
0000
0001
0100
0000
0010
0000
1000
0000
0100
0000
,
0010
0000
0000
0010
0001
0000
1000
0000
0010
0100
0010
0100
0010
0000
0000
0000
,
1000
0000
0000
0000
;

//---------------dance-single - ----------------
#NOTES:
     dance-single:
     :
     Easy:
     3:
     0.238,0.230,0.032,0.000,0.000: // measure 1
1000
0000
0000
0000
,  // measure 2
0001
0000
0000
0000
,  // measure 3
0010
0000
0001
0000
,  // measure 4
1000
0000
0100
0000
,  // measure 5
1000
0001
1000
0001
,  // measure 6
1000
0010
0100
0001
,  // measure 7
0010
0010
0010
0010
,  // measure 8
0001
0000
0000
0000
,  // measure 9
1000
0100
0010
0001
,  // measure 10
0100
0000
0010
1000
,  // measure 11
0000
0100
0010
0001
,  // measure 12
0100
0000
0010
0000
,  // measure 13
0000
1000
0100
0010
,  // measure 14
0001
0000
1000
0100
,  // measure 15
0000
1000
0001
0010
,  // measure 16
0100
0000
1000
0000
,  // measure 17
0010
0100
0001
0001
,  // measure 18
1000
0100
1000
0010
,  // measure 19
0000
0100
0001
0010
,  // measure 20
0001
0000
0001
0000
,  // measure 21
0000
1000
0100
0010
,  // measure 22
1000
0010
0100
0001
,  // measure 23
0000
1000
0100
0010
,  // measure 24
1000
0000
0001
0000
,  // measure 25
1000
1000
0001
0000
,  // measure 26
0010
0100
0001
0010
,  // measure 27
0000
0001
1000
1000
,  // measure 28
0100
1000
0010
0000
,  // measure 29
0100
0001
0001
0010
,  // measure 30
0001
1000
0100
0000
,  // measure 31
0000
1000
0001
0010
,  // measure 32
0100
0001
1001
0000
,  // measure 33
1000
0010
0010
0100
,  // measure 34
0001
0010
0001
1100
,  // measure 35
0000
0010
0100
0001
,  // measure 36
0010
0100
1000
0000
,  // measure 37
0001
0100
0100
0010
,  // measure 38
1000
0100
0010
0001
,  // measure 39
0000
1000
0100
0010
,  // measure 40
1000
0010
0101
0000
,  // measure 41
1000
1000
0001
0100
,  // measure 42
0001
0001
1000
0100
,  // measure 43
1000
1000
0010
0100
,  // measure 44
0001
0001
1000
0100
,  // measure 45
1000
1000
0010
0100
,  // measure 46
0001
0001
0010
0100
,  // measure 47
1000
0010
0100
0100
,  // measure 48
0001
0010
0001
0100
,  // measure 49
0010
0000
0000
0000
;

//---------------dance-single - Copied from----------------
#NOTES:
     dance-single:
     Copied from:
     Medium:
     5:
     0.372,0.381,0.202,0.000,0.000:
0001
1000
0001
0000
1000
0000
1000
0000
,
0001
0100
0001
0000
0001
0000
0001
0000
,
1000
0100
1000
0000
0100
1000
0100
0000
,
1000
0001
1000
0000
0001
0010
0001
0000
,
1000
0100
0001
0010
,
1000
0001
0100
0010
,
1000
0001
1000
0010
,
0100
0000
0000
0000
,
1001
0000
0010
0100
0001
0000
1000
0000
,
0100
0000
1000
0010
1000
0001
0010
0100
,
0000
0100
0001
1000
,
0010
0000
1000
0100
0001
0000
0000
0000
,
0100
0000
1000
0000
0010
0100
0001
0000
,
1000
0000
0010
0000
0100
0001
1000
0010
,
0000
0100
0010
0001
,
1000
0000
0100
0001
0100
0000
0000
0000
,
1000
0000
0010
0010
0100
0000
0001
0000
,
0010
0000
0001
0000
0100
0100
0010
0000
,
1000
0000
0100
0100
1000
0000
0010
0000
,
0100
0000
0001
0000
0010
0010
0001
0000
,
1000
0100
1000
0100
,
1000
0001
0010
0100
,
0000
0001
1000
0010
,
0100
0000
0001
0100
0001
0000
0000
0000
,
1001
0000
1001
0000
1000
0100
1000
0000
,
0001
0100
0001
0000
1001
0000
1001
0000
,
0000
0000
1000
0100
1000
0000
0001
0100
,
0001
1010
1010
0001
,
1000
0010
0100
0000
0001
0100
0010
0000
,
1001
0000
1001
0000
0100
0010
0001
0000
,
0000
0000
1000
0100
1000
0000
0010
0000
,
0100
1001
1001
0000
,
0101
0000
0101
0000
1000
0100
1000
0000
,
1010
0000
1010
0000
0001
0100
0001
0000
,
1000
0100
1000
0000
0001
0100
0001
0000
,
1000
0000
0010
0100
0001
0000
0000
0000
,
1000
0100
0001
0000
1000
0100
0001
0000
,
1000
0010
1001
1001
,
0000
0010
0000
1001
,
0100
0000
0010
1000
0010
0000
0000
0000
,
1000
0000
1000
0000
0001
0100
0001
0100
,
0001
0000
0001
0000
1000
0100
1000
0100
,
1000
0000
1000
0000
0010
0100
0010
0100
,
0010
0000
0010
0000
1000
0001
1000
0001
,
1000
0000
0010
0000
0001
0100
0010
1000
,
0100
0000
0010
0000
0001
0100
0010
1000
,
0100
0000
1000
0000
0010
0100
0001
0000
,
0010
0000
0100
0000
1000
0010
0101
0000
;
