#TITLE:U-Bahn;
#SUBTITLE:;
#ARTIST:Blümchen;
#TITLETRANSLIT:;
#SUBTITLETRANSLIT:;
#ARTISTTRANSLIT:;
#CREDIT:;
#BANNER:U-Bahn.png;
#BACKGROUND:U-Bahn-bg.png;
#LYRICSPATH:U-Bahn.lrc;
#CDTITLE:Fur Immer Und Ewig.png;
#MUSIC:U-Bahn.mp3;
#OFFSET:-0.028;
#SAMPLESTART:43.622;
#SAMPLELENGTH:13.000;
#SELECTABLE:YES;
#DISPLAYBPM:132.000;
#BPMS:0.000=132.000;
#STOPS:;
#BGCHANGES:;

//---------------dance-single - ----------------
#NOTES:
     dance-single:
     :
     Beginner:
     1:
     0.140,0.182,0.220,0.000,0.000:
0000
0000
0000
0000
,
0000
0000
0000
0000
,
0000
0000
0000
0000
,
0000
0000
0000
0000
,
1001
0000
0000
0000
,
0010
0000
0100
0000
,
1001
0000
0000
0000
,
1001
0000
0000
0000
,
0010
0000
0010
0000
,
1000
0000
0000
0000
,
0100
0000
0100
0000
,
0001
0000
0000
0000
,
1001
0000
0000
0000
,
0100
0000
0100
0000
,
0010
0010
0010
0000
,
0000
0000
0000
1001
,
1001
0000
0000
0000
,
0010
0000
0100
0000
,
0110
0000
0000
0000
,
1000
0000
0001
0000
,
1001
0000
0000
0000
,
0001
0000
0010
0000
,
0100
0000
0100
0000
,
1001
0000
0000
0000
,
1000
0000
1000
0000
,
0001
0000
0001
0000
,
0010
0000
0010
0000
,
1001
0000
0000
0000
,
1001
0000
0000
0000
,
1000
1000
1000
0000
,
0001
0000
0100
0000
,
0001
0000
0000
0000
,
0010
0000
0001
0000
,
1000
0000
1000
0000
,
0010
0000
0010
0000
,
1001
0000
0000
0000
,
1000
1000
1000
0000
,
0001
0000
0010
0000
,
1001
0000
0000
0000
,
0000
0000
0000
1001
,
1001
0000
0000
0000
,
0010
0000
0100
0000
,
0110
0000
0000
0000
,
1001
0000
0000
0000
,
1001
0000
0000
0000
,
0010
0000
0100
0000
,
0110
0000
0000
0000
,
1001
0000
0000
1000
,
1000
0000
1000
0000
,
0001
0000
0001
0000
,
0100
0000
0000
0000
,
0000
0000
0000
1001
,
1001
0000
0000
0000
;

//---------------dance-single - ----------------
#NOTES:
     dance-single:
     :
     Easy:
     2:
     0.188,0.264,0.170,0.130,0.000: // measure 1
0000
0000
0000
0000
,  // measure 2
0000
0000
0000
0000
,  // measure 3
0000
0000
0000
0000
,  // measure 4
0000
0000
0000
0000
,  // measure 5
1000
0000
0010
0000
,  // measure 6
0100
0000
0001
0000
,  // measure 7
0100
0000
0010
0000
,  // measure 8
0100
0000
0000
0010
,  // measure 9
1000
0000
0001
0000
,  // measure 10
0010
0000
0100
0000
,  // measure 11
1000
1000
1000
0000
,  // measure 12
1000
0000
0000
0001
,  // measure 13
1000
0000
0010
0000
,  // measure 14
1000
0000
0001
0000
,  // measure 15
0010
0010
0010
0010
,  // measure 16
0000
0000
0000
0000
,  // measure 17
1001
1001
1001
0000
,  // measure 18
1001
0000
0000
0000
,  // measure 19
0110
0110
0110
0000
,  // measure 20
0110
0000
0000
0000
,  // measure 21
1001
1001
1001
0000
,  // measure 22
1001
0000
0000
0000
,  // measure 23
1001
0000
0110
0000
,  // measure 24
2002
0000
0000
3003
,  // measure 25
2000
0000
3100
0000
,  // measure 26
1000
1000
1000
0000
,  // measure 27
0002
0000
0013
0000
,  // measure 28
0001
0000
0000
0000
,  // measure 29
1000
1000
1000
0000
,  // measure 30
0001
0000
0001
0000
,  // measure 31
0010
0010
0010
0000
,  // measure 32
1001
0000
0000
0000
,  // measure 33
2000
0000
3001
0000
,  // measure 34
0010
0010
0010
0000
,  // measure 35
0002
0000
1003
0000
,  // measure 36
0010
0000
0000
1000
,  // measure 37
1000
1000
1000
0000
,  // measure 38
0001
0000
1000
0000
,  // measure 39
2000
0000
3200
0000
,  // measure 40
0320
0000
0032
0000
,  // measure 41
1003
1000
1000
0000
,  // measure 42
0001
0000
0010
0000
,  // measure 43
0100
0100
0100
0000
,  // measure 44
1000
0000
0000
0000
,  // measure 45
0001
0001
0001
0000
,  // measure 46
0100
0000
0001
0000
,  // measure 47
1000
1000
1000
0000
,  // measure 48
0100
0000
0000
0000
,  // measure 49
1000
1000
1000
0000
,  // measure 50
0001
0000
0001
1000
,  // measure 51
0020
0000
0000
0000
,  // measure 52
0000
0000
0030
0001
,  // measure 53
0220
0000
0000
0330
;

//---------------dance-single - ----------------
#NOTES:
     dance-single:
     :
     Medium:
     5:
     0.226,0.290,0.070,0.150,0.000:
0000
0000
0000
0000
,
0000
0000
0000
0000
,
0000
0000
0000
0000
,
0000
0000
0000
0000
,
1000
0000
0000
0001
0000
0000
1000
0000
,
0010
0000
0000
0100
0000
0000
0010
0000
,
0100
0000
0000
0001
0000
0000
0100
0000
,
1001
0000
0000
0000
0000
0000
0010
0100
,
0010
0001
1000
0000
,
1000
0000
0000
0001
0000
0000
1000
0000
,
0010
1000
0010
1000
0000
0000
0000
0000
,
0001
0000
0000
0100
0000
0000
0000
0000
,
0001
0100
0100
0000
,
0001
0000
0000
0100
0000
0000
0001
0000
,
1000
0000
0000
1000
0000
0000
1000
0000
,
0000
0000
0000
0000
0000
0000
1000
0100
,
1000
1000
1000
0000
,
1001
0000
0000
0000
,
0100
0100
0100
0000
,
0110
0000
0000
0000
0000
0000
1000
0100
,
1000
1000
1000
0000
,
1001
0000
0000
0000
,
0001
0000
1000
0000
,
2002
0000
0000
3003
,
1000
0000
0000
1000
0000
0000
1000
0000
,
0010
0000
0100
0010
0100
0000
0000
0000
,
0001
0000
0000
0001
0000
0000
0001
0000
,
0010
0100
1000
0001
,
0100
0000
0000
0001
0000
0000
0100
0000
,
0001
0010
0100
0000
,
0020
0032
2003
3020
,
0230
0000
0000
0300
,
0001
0000
0000
0100
0000
0000
0001
0000
,
1000
1000
1000
0000
,
0010
0000
0000
0010
0000
0000
0010
0000
,
2000
0000
3000
1000
,
0001
0000
0010
0100
0010
0000
0001
0000
,
1000
0010
0100
0000
,
0002
0000
0023
0000
,
0230
0000
2300
0000
,
3001
0000
0000
0010
0000
0000
0100
0000
,
0001
0000
0000
1000
0000
0000
0001
0000
,
0100
0000
0000
0010
0000
0000
1000
0000
,
0001
0010
0100
1000
,
0010
0000
0000
0100
0000
0000
0010
0000
,
1000
0000
0000
0100
0000
0000
1000
0000
,
0001
0000
0000
0100
0000
0000
0010
0000
,
1001
0000
0000
1000
,
0001
0000
0010
0001
0010
0000
0100
0000
,
1000
0000
0010
0100
0000
0000
0100
0000
,
0002
0000
0000
0000
,
0000
0000
0000
1003
,
2002
0000
0000
3003
;

//---------------dance-single - ----------------
#NOTES:
     dance-single:
     :
     Hard:
     7:
     0.368,0.448,0.160,0.260,0.015:
0000
0000
0000
0000
,
0000
0000
0000
0000
,
0000
0000
0000
0000
,
0000
0000
0000
0000
,
1000
0000
0010
0100
0000
0100
0010
0000
,
1000
0000
0001
0100
0000
0100
0001
0000
,
0010
0000
0100
1000
0000
1000
0100
0000
,
1001
0000
0000
0000
0000
0010
1000
0010
,
0100
0000
0001
1000
0000
1000
0001
0010
,
0010
0000
0100
1000
0000
1000
0001
0100
,
0100
0010
1000
0001
0000
1000
0001
0010
,
0010
0000
0100
1000
0000
1000
0001
0100
,
0010
0000
1000
0001
0000
0001
0100
0000
,
0010
0010
1000
0001
0000
0001
0010
0000
,
1001
0000
0000
0101
0000
0000
0110
0000
,
1001
0000
0000
0000
0000
0100
0001
0100
,
0010
0000
0010
0000
0010
0000
0000
1000
,
0001
0000
0000
0000
0001
0000
1000
0000
0000
0000
1000
0000
0010
0100
0000
0000
,
0001
0000
0001
0000
0001
0000
0000
1000
,
0100
0000
0000
0000
1000
0000
0001
0000
0000
0000
0001
0000
0010
0100
0000
0000
,
1000
0000
1000
0000
1000
0000
0000
0001
,
0100
0000
0000
0000
0010
0000
0100
0000
0000
0000
0010
0000
1000
0001
0000
0000
,
0100
0000
0100
0000
,
2002
0000
0000
3003
,
0002
0000
0000
0013
0000
0000
0011
0000
,
1000
0010
1000
0001
0000
0000
0000
0000
,
2000
0000
0000
3100
0000
0000
1100
0000
,
0001
0010
0100
1000
,
0001
0000
0001
1000
0000
1000
0001
0000
,
1000
0000
0010
0100
0000
0000
0002
0000
,
2003
0000
3020
0200
0030
0000
0302
0000
,
2003
0000
0000
3001
,
2000
0000
0000
3100
0000
0000
1100
0000
,
0001
0100
0001
1000
0000
0000
0000
0000
,
0002
0000
0000
0013
0000
0000
0011
0000
,
0001
0010
0100
1000
0000
1000
0001
0010
,
0200
2300
3002
0203
,
0320
0000
1030
0001
0000
0001
1000
0000
,
2002
3003
0202
0303
,
2020
3030
2100
3001
,
1000
0000
0010
0100
0000
0100
0010
0010
,
1000
0000
0001
0010
0000
0010
0001
0000
,
0100
0000
0010
1000
0000
1000
0001
0001
,
0100
0000
0010
1000
0000
1000
0010
0000
,
0100
0000
0001
0010
0000
0010
0001
0001
,
1000
0000
0001
0100
0000
0100
0001
0000
,
0010
0000
0100
1000
0000
1000
0001
0001
,
0100
0000
0010
1000
0000
1000
0010
0000
,
1000
0000
1000
0001
0100
0000
0001
0000
,
0010
0000
0100
1000
0000
0000
0100
0000
,
1000
0000
0001
1000
0000
1000
0001
0000
,
1001
0000
0000
0001
,
0220
0000
0000
0330
;
