#TITLE:The More You Ignore Me, The Closer I Get;
#SUBTITLE:;
#ARTIST:Morrissey;
#TITLETRANSLIT:;
#SUBTITLETRANSLIT:;
#ARTISTTRANSLIT:;
#CREDIT:;
#BANNER:The More You Ignore Me, The Closer I Get.png;
#BACKGROUND:The More You Ignore Me, The Closer I Get-bg.png;
#LYRICSPATH:;
#CDTITLE:Vauxhall And I.png;
#MUSIC:The More You Ignore Me, The Closer I Get.mp3;
#OFFSET:-5.589;
#SAMPLESTART:5.544;
#SAMPLELENGTH:12.000;
#SELECTABLE:YES;
#DISPLAYBPM:87.000;
#BPMS:0.000=86.612,4.000=87.229,8.000=86.255,12.000=86.867,16.000=86.739,20.000=87.466,24.000=86.803,28.000=87.101,32.000=86.549,36.000=87.595,40.000=87.037,44.000=86.381,48.000=86.782,52.000=87.509,56.000=86.633,60.000=87.251,64.000=86.697,68.000=87.186,72.000=85.775,76.000=87.877,80.000=86.735,84.000=87.294,88.000=86.633,92.000=87.144,96.000=86.931,100.000=87.016,104.000=86.360,108.000=87.593,112.000=86.276,116.000=87.102;
#STOPS:;
#BGCHANGES:;

//---------------dance-single - Maniac----------------
#NOTES:
     dance-single:
     Maniac:
     Hard:
     5:
     0.259,0.242,0.000,0.135,0.000: // measure 1
0001
0000
0001
0010
0010
0000
0100
0000
,  // measure 2
2000
0000
3000
0000
1000
0010
0100
0001
,  // measure 3
1000
0000
0001
0100
0100
0000
0010
0000
,  // measure 4
2000
0000
3000
0000
0001
0010
0100
1000
,  // measure 5
0001
0000
0100
0010
0010
0000
1000
0000
,  // measure 6
0002
0000
0003
0000
0100
0010
1000
0001
,  // measure 7
0100
0000
0001
0001
1000
0000
0010
0000
,  // measure 8
0200
0000
0301
0000
1000
0100
0010
0001
,  // measure 9
1000
0000
0010
0000
0100
0000
0001
0100
,  // measure 10
0010
0000
1000
0000
0001
0000
1000
0100
,  // measure 11
0001
0000
0001
0100
1000
0000
1000
0000
,  // measure 12
0010
0100
0002
2003
,  // measure 13
3010
0000
0010
0000
1000
0010
1000
1000
,  // measure 14
0001
0000
1000
0000
0010
0000
0100
0100
,  // measure 15
0001
0000
0002
0000
1003
0000
0001
1000
,  // measure 16
1000
0001
0100
0010
,  // measure 17
0100
0010
0100
0000
0001
1000
0001
0000
,  // measure 18
0200
0000
0310
1000
0001
0100
0010
1000
,  // measure 19
0001
0000
1000
0010
0100
0010
1000
0002
,  // measure 20
0000
1003
0000
0000
1000
0001
0100
0200
,  // measure 21
0000
0000
0300
0001
0010
0001
1000
0010
,  // measure 22
0100
0000
0010
0000
0010
1000
0001
0100
,  // measure 23
0010
0000
0100
0010
1000
0001
0010
0001
,  // measure 24
0100
0000
0001
0000
1000
0010
0100
0200
,  // measure 25
0000
0000
0300
0010
0100
0100
0010
0010
,  // measure 26
0100
0000
0001
0000
0100
0100
0100
0100
,  // measure 27
0010
0000
0100
0010
1000
0000
0001
0000
,  // measure 28
0200
0000
0300
0000
0010
0100
0010
1000
,  // measure 29
0001
0000
0001
0010
0001
0000
0100
0000
,  // measure 30
0010
0000
0000
0000
1000
0100
0010
0001
,  // measure 31
2000
0000
0000
0000
,  // measure 32
3000
0000
0000
0000
;

//---------------dance-single - Trick----------------
#NOTES:
     dance-single:
     Trick:
     Medium:
     4:
     0.231,0.194,0.000,0.208,0.000:
0002
0103
0001
2000
,
3100
0000
0000
0000
1000
0100
1000
0100
,
2000
3010
1000
0002
,
0013
0000
0000
0000
0001
0010
0001
0010
,
0002
1003
0100
2000
,
3001
0000
0000
0000
1000
0001
1000
0001
,
2000
3100
1000
0002
,
1003
0000
0000
0000
0001
1000
0001
1000
,
0001
1000
0010
1000
,
0001
0000
0010
0000
0001
0000
1000
0100
,
1000
0000
0001
0010
0001
0000
1000
0000
,
0010
0100
0002
2003
,
3010
0000
0000
0000
1000
0010
1000
0010
,
1000
0001
0000
0100
,
0100
0010
0010
0000
,
1000
0001
0100
0010
,
1000
0100
1000
0100
,
2000
0000
0000
0000
3001
0010
0001
0010
,
0002
0013
0001
2000
,
3100
0000
0000
0000
1000
0100
1000
0100
,
2000
3010
0100
0002
,
0103
0000
0000
0000
0001
0100
0001
0100
,
0002
1003
0010
0200
,
0301
0000
0000
0000
0100
0001
0100
0001
,
0200
0301
1000
0020
,
0130
0000
0000
0000
0010
0100
0010
0100
,
0010
0000
0100
0001
0100
0000
0001
0000
,
1000
0000
0000
0000
1000
0010
1000
0010
,
1000
0000
0010
0100
0010
0000
1000
0000
,
0001
0000
0000
0000
0001
0100
0001
0100
,
0002
0000
0000
0000
,
0003
0000
0000
0000
;

//---------------dance-single - Basic----------------
#NOTES:
     dance-single:
     Basic:
     Easy:
     2:
     0.137,0.125,0.000,0.000,0.000:
1000
0000
0001
0000
,
1000
0000
0001
0001
,
0001
0000
0100
0000
,
0010
0000
0100
0100
,
0100
0000
0001
0000
,
1000
0000
0010
0010
,
0010
0000
0100
0000
,
0001
0000
1000
1000
,
1000
0000
1000
0001
,
1000
0000
0001
0100
,
0001
0000
0100
0010
,
0100
0000
0010
1000
,
0010
0000
1000
0100
,
1000
0000
0010
1000
,
1000
0010
0010
0000
,
0100
0001
0100
0001
,
1000
0010
1000
0010
,
1000
0000
0001
0000
,
1000
0100
0010
0100
,
1000
0000
0001
0001
,
0001
1000
0100
1000
,
0001
0000
0100
0100
,
0100
0010
1000
0001
,
0100
0000
0010
0010
,
0010
0100
0001
1000
,
0010
0000
1000
1000
,
1000
0000
1000
0100
,
1000
0000
0010
0100
,
0001
0000
0100
0010
,
0100
0000
0010
1000
,
0001
0000
0000
0000
;
