#TITLE:The Dark Of The Matinée;
#SUBTITLE:;
#ARTIST:Franz Ferdinand;
#TITLETRANSLIT:;
#SUBTITLETRANSLIT:;
#ARTISTTRANSLIT:;
#CREDIT:;
#BANNER:The Dark Of The Matinee.png;
#BACKGROUND:The Dark Of The Matinee-bg.png;
#LYRICSPATH:;
#CDTITLE:Franz Ferdinand.png;
#MUSIC:The Dark Of The Matinee.mp3;
#OFFSET:-0.507;
#SAMPLESTART:54.993;
#SAMPLELENGTH:12.000;
#SELECTABLE:YES;
#BPMS:0.000=116.534,4.000=116.675,8.000=115.231,12.000=116.346,16.000=117.722,20.000=115.093,24.000=111.902,26.000=116.888,28.000=116.135,32.000=117.030,36.000=114.432,40.000=108.250,42.000=114.160,44.000=113.665,48.000=111.427,52.000=112.469,56.000=112.426,60.000=112.821,64.000=112.777,68.000=110.786,72.000=116.652,74.000=113.800,76.000=114.205,80.000=112.382,84.000=114.796,88.000=115.208,92.000=114.933,96.000=115.300,100.000=116.652,104.000=117.316,108.000=115.809,112.000=114.841,116.000=119.304,120.000=110.287,122.000=117.602,124.000=116.841,128.000=115.577,132.000=115.254,136.000=113.980,138.000=116.089,140.000=113.755,144.000=115.763,148.000=114.115,152.000=115.163,156.000=112.866,160.000=114.160,164.000=114.523,168.000=114.025,172.000=114.432,176.000=111.431;
#DISPLAYBPM:115.000
#STOPS:;
#BGCHANGES:;

//---------------dance-single - MANIAC----------------
#NOTES:
     dance-single:
     MANIAC:
     Hard:
     7:
     0.380,0.402,0.252,0.058,0.112:
0000
0000
0000
0000
,
0000
0000
0000
0000
,
1000
0000
0100
0000
0010
0000
0000
0001
0010
0000
0001
0000
1000
0000
0000
0100
,
1000
0000
0100
0000
1000
0000
0000
0001
0100
0000
0001
0000
0100
0000
0000
0001
,
1000
0100
0010
0001
1000
0100
0010
0001
,
1000
0000
0010
0000
0100
0000
0000
0010
0100
0000
0001
0000
0100
0000
0010
0000
,
1000
0000
0100
0000
1000
0000
0000
0001
0010
0000
0001
0000
0010
0000
0000
0001
,
0100
0000
0010
0000
0100
0000
0000
0010
1000
0000
0100
0000
1000
0000
0000
0000
,
0010
0100
0001
1000
0010
0100
0001
1000
,
0100
0000
0010
0000
0001
0000
0000
1000
0100
0000
1000
0000
0010
0000
0100
0000
,
0001
0000
0000
0000
0001
0001
0000
0000
,
0001
0010
0100
1000
,
1000
1000
0000
0000
1000
1000
0000
0000
,
1000
0100
0010
0001
,
0001
0001
0000
0000
0001
0001
0000
0000
,
0001
0100
0010
1000
,
1000
1000
0000
0000
1000
1000
0000
0000
,
1000
0010
0100
0001
,
0001
0100
0001
0000
1000
0100
1000
0000
,
0001
0010
0001
0000
1000
0010
1000
0000
,
0001
0100
0010
0000
1000
0010
0100
0000
,
0001
0010
0100
0000
1000
0100
0010
0000
,
1001
0010
1001
0010
,
1100
0001
1100
0001
,
1000
0010
0100
0010
1000
0001
0100
0000
,
0001
0010
0100
1000
0010
0100
0001
0000
,
0011
0000
0000
0000
1001
0000
0000
0000
1000
0000
0100
1000
0000
0000
0000
0000
,
0011
0000
0000
0000
0101
0000
0000
0000
0001
0000
0100
0001
0000
0000
0000
0000
,
1100
0000
0000
0000
1001
0000
0000
0000
1000
0000
0010
0100
0000
0000
0010
0000
,
0100
0000
0001
0000
0100
0000
0010
0000
1000
0000
0001
1000
0000
0000
0000
0000
,
0001
0000
0010
0000
0001
0000
1000
0000
0100
0000
1000
0010
0000
0000
0000
0000
,
1010
0000
0000
0000
0001
0000
0100
0000
0010
0000
0100
0001
0000
0000
0000
0000
,
0101
0000
0000
0000
1000
0000
0100
0000
0010
0000
0001
0100
0000
0000
0000
0000
,
1010
0000
0000
0000
0001
0000
0010
0000
0100
0000
1000
0010
0000
0000
0000
0000
,
0110
0000
0000
0000
1001
0000
0000
0000
0010
0000
1000
0010
0000
0000
0100
0000
,
1001
0000
0000
0000
0110
0000
0000
0000
0001
0000
0010
0001
0000
0000
1000
0000
,
0101
0000
0000
0000
1010
0000
0000
0000
1000
0000
0001
0010
0000
0000
0000
0000
,
1010
0000
0000
0000
0101
0000
0000
0000
0001
0000
1000
0010
0000
0000
0000
0000
,
0100
0000
0001
0000
0010
0000
0100
0000
1000
0000
0010
0100
0000
0000
0000
0000
,
0001
0000
0000
0000
1000
0000
0010
0000
0100
0000
0001
0010
0000
0000
0000
0000
,
1010
0101
0011
1100
,
0001
0100
0010
1000
,
2000
0000
0010
0100
,
3002
0000
0010
0100
,
2003
3100
0020
0031
,
0220
0000
0000
0000
,
0330
0000
0000
0000
;

//---------------dance-single - TRICK----------------
#NOTES:
     dance-single:
     TRICK:
     Medium:
     5:
     0.304,0.349,0.262,0.039,0.000:
0000
0000
0000
0000
,
0000
0000
0000
0000
,
1000
1000
0001
0000
0001
0001
0100
0000
,
0100
0100
0010
0000
0010
0010
1000
0000
,
1000
0010
1000
0010
0100
0001
0100
0001
,
1000
1000
0001
0001
,
0100
0100
0010
0000
0010
0010
1000
0000
,
1000
1000
0001
0000
0001
0001
0100
0000
,
0001
1000
0001
1000
0010
0100
0010
0100
,
0001
0001
1000
1000
,
0010
0000
0010
0000
,
1000
0100
0010
0001
,
1000
0000
1000
0000
,
0001
0010
0100
1000
,
0001
0000
0001
0000
,
1000
0010
0100
0001
,
0100
0000
0100
0000
,
0001
0100
0010
1000
,
0001
1000
0001
0000
0010
0000
0001
0000
,
1000
0010
1000
0000
0001
0000
1000
0000
,
0010
0100
0010
0000
1000
0000
0001
0000
,
1000
0100
1000
0000
0001
0000
0100
0000
,
1001
0010
1001
0010
,
1001
0100
1001
0100
,
0001
0010
0100
1000
,
0100
0010
0001
0010
,
0011
0000
1100
0000
0010
0100
0010
0000
,
1100
0000
0011
0000
1000
0001
1000
0000
,
0101
0000
1010
0000
0100
0010
0100
0000
,
0001
1000
0010
0000
0010
1000
0001
0000
,
1001
0000
0110
0000
1000
0001
1000
0000
,
0110
0000
1001
0000
0010
0100
0010
0000
,
1000
0100
0001
0100
,
1000
0010
0001
0010
,
0011
0000
1100
0000
0001
0010
0001
0000
,
1100
0000
0011
0000
1000
0100
1000
0000
,
0101
0000
1010
0000
0001
0100
0001
0000
,
1001
1001
0110
0110
,
1000
0100
1000
0000
0001
0000
0100
0000
,
0010
1000
0010
0000
1000
0000
0001
0000
,
1001
0110
1000
0001
,
0100
0010
0010
0100
,
0120
0000
0000
0000
,
2030
0000
0000
0000
,
3002
0000
0200
0000
,
0303
0000
0000
0000
;

//---------------dance-single - Basic----------------
#NOTES:
     dance-single:
     Basic:
     Easy:
     2:
     0.176,0.240,0.078,0.039,0.000:
0000
0000
0000
0000
,
0000
0000
0000
0000
,
0001
0000
0010
0000
,
0001
0000
0010
0000
,
0001
1000
0001
1000
,
0010
0000
0010
0000
,
1000
0000
0100
0000
,
1000
0000
0100
0000
,
0010
0001
0010
0001
,
0010
0000
0100
0000
,
1000
0000
0000
0000
,
0010
0100
0010
0100
,
0010
0000
0000
0000
,
1000
0010
1000
0010
,
1000
0000
0000
0000
,
0001
0100
0001
0100
,
0001
0000
0001
0000
,
1000
0001
1000
0001
,
1000
0000
0010
0000
,
0100
0000
0010
0000
,
0100
0000
0001
0000
,
1000
0000
0010
0000
,
1000
0100
1000
0000
,
0001
0010
0001
0000
,
0100
0010
0100
0000
,
0001
1000
0001
0000
,
1001
1000
0001
0000
,
1001
0001
1000
0000
,
0110
0010
0100
0000
,
0110
0100
0010
0000
,
0010
0010
1000
0000
,
0001
0001
0100
0000
,
0100
0100
0010
0000
,
1000
1000
0100
0000
,
1001
0001
1000
0001
,
1001
1000
0001
0000
,
0110
0010
0100
0010
,
0110
0100
0010
0000
,
0001
0001
1000
0000
,
1000
1000
0010
0000
,
0010
0010
0100
0000
,
0100
0100
0001
0000
,
0002
0000
0000
0000
,
2003
0000
0000
0000
,
3020
0000
0200
0000
,
0330
0000
0000
0000
;
