#TITLE:The Call;
#SUBTITLE:(Thunderpuss Radio Edit);
#ARTIST:BACKSTREET BOYS;
#TITLETRANSLIT:;
#SUBTITLETRANSLIT:;
#ARTISTTRANSLIT:;
#CREDIT:;
#BANNER:The Call (Thunderpuss Radio Edit).png;
#BACKGROUND:The Call (Thunderpuss Radio Edit)-bg.png;
#LYRICSPATH:;
#CDTITLE:CD.png;
#MUSIC:The Call (Thunderpuss Radio Edit).mp3;
#OFFSET:-0.508;
#SAMPLESTART:31.860;
#SAMPLELENGTH:12.000;
#SELECTABLE:YES;
#DISPLAYBPM:130.000;
#BPMS:0.000=130.000,100.000=127.000,101.000=130.000;
#STOPS:;
#BGCHANGES:;

//---------------dance-single - BASIC----------------
#NOTES:
     dance-single:
     BASIC:
     Easy:
     4:
     0.247,0.308,0.099,0.079,0.000: // measure 1
0000
0000
0000
0000
,  // measure 2
0001
0001
0001
0000
,  // measure 3
1000
1000
1000
0000
,  // measure 4
0100
0100
0100
0000
,  // measure 5
0010
0000
0000
0000
,  // measure 6
1000
0100
0010
0010
,  // measure 7
0001
1000
0010
0010
,  // measure 8
0100
0100
0001
0000
,  // measure 9
1000
0001
0011
1000
,  // measure 10
0001
0100
0010
0010
,  // measure 11
1000
0001
0100
0010
,  // measure 12
1001
0000
0000
0000
,  // measure 13
0100
0100
0010
1000
,  // measure 14
0001
0100
1000
0100
,  // measure 15
0001
0010
0100
0100
,  // measure 16
0001
0010
1000
0010
,  // measure 17
0002
2003
3002
2003
,  // measure 18
3100
0000
0100
0010
,  // measure 19
0001
0000
0010
1000
,  // measure 20
0100
0000
0001
0100
,  // measure 21
1000
1000
0001
0001
,  // measure 22
1000
0100
0010
0000
,  // measure 23
0001
0010
1000
0100
,  // measure 24
1100
0000
0000
0001
0001
0000
0000
0000
,  // measure 25
0010
1000
1000
0000
,  // measure 26
1001
0000
0000
0000
,  // measure 27
0100
0000
0000
0000
,  // measure 28
0010
0000
0000
0000
,  // measure 29
1000
0000
0000
0000
,  // measure 30
0110
0000
0000
0000
,  // measure 31
0001
0000
0000
0000
,  // measure 32
0100
0000
0000
0000
,  // measure 33
0010
0010
0200
0300
,  // measure 34
1000
1000
0002
0003
,  // measure 35
0200
0000
0000
0300
,  // measure 36
1001
0010
0100
0001
,  // measure 37
1000
1000
0010
0100
,  // measure 38
0001
0010
0100
0100
,  // measure 39
1000
0001
0101
0000
,  // measure 40
0010
1000
0100
0010
,  // measure 41
0100
0100
0001
0001
,  // measure 42
0100
1000
0010
0001
,  // measure 43
0100
0010
1010
0001
,  // measure 44
1000
0100
0001
0000
,  // measure 45
0010
0100
1000
0000
,  // measure 46
0001
0100
0010
1000
,  // measure 47
0001
0001
1000
1000
,  // measure 48
0010
0100
0001
0000
,  // measure 49
1000
0100
1100
0001
,  // measure 50
1001
0000
0000
0100
0100
0000
0000
0000
,  // measure 51
0010
1000
0200
0300
,  // measure 52
0010
0000
0001
0000
0100
0000
0000
0001
,  // measure 53
0010
0000
0000
0000
;

//---------------dance-single - BEGINNER----------------
#NOTES:
     dance-single:
     BEGINNER:
     Beginner:
     1:
     0.157,0.180,0.079,0.000,0.000:
0000
0000
0000
0000
,
0001
0001
0001
0000
,
1000
1000
1000
0000
,
0100
0100
0100
0000
,
0010
0000
0000
0000
,
1000
0000
0010
0000
,
0001
0000
0010
0000
,
0100
0000
0001
0000
,
1000
0000
1001
0000
,
0001
0000
0010
0000
,
1000
0000
0100
0000
,
1001
0000
0000
0000
,
0100
0100
0000
0000
,
0001
0001
0000
0000
,
1000
0000
0100
0000
,
0001
0001
0000
0000
,
0001
0000
1000
0000
,
0100
0000
0100
0100
,
0100
0000
0010
0010
,
0010
0000
0001
0001
,
0001
0000
1000
0000
,
1000
1000
1000
0000
,
0010
0010
0010
0000
,
1001
0000
0010
0000
,
0010
0000
1000
0000
,
1001
0000
0000
0000
,
0100
0000
0000
0000
,
0010
0000
0000
0000
,
1000
0000
0000
0000
,
0010
0000
0000
0000
,
0001
0000
0000
0000
,
0100
0000
0000
0000
,
0010
0010
0010
0000
,
1000
1000
1000
0000
,
0100
0000
0000
0000
,
0001
0000
0100
0000
,
1000
0000
0010
0000
,
0001
0000
0100
0000
,
1000
0000
1001
0000
,
0010
0000
0100
0000
,
0100
0000
0001
0000
,
0100
0000
0010
0000
,
0100
0000
1001
0000
,
1000
1000
0000
0000
,
0001
0001
0000
0000
,
1000
0000
0010
0000
,
0001
0000
1000
0000
,
0010
0010
0000
0000
,
1000
0000
1001
0000
,
1001
0000
0100
0000
,
0010
0000
0010
0000
,
0010
0000
0010
0000
,
0100
0000
0000
0000
;

//---------------dance-single - TRICK----------------
#NOTES:
     dance-single:
     TRICK:
     Medium:
     6:
     0.348,0.365,0.178,0.109,0.000:
0000
0000
0000
0000
,
1000
0000
0001
0000
0100
0000
0010
0100
,
0010
0000
1000
0000
0100
0000
0010
0001
,
0010
0000
1000
0000
0001
0000
0100
0010
,
0200
0000
0010
0310
,
1000
0100
1000
0010
,
0100
0000
0001
0000
1000
0100
1000
0000
,
0001
0010
0100
1010
,
0100
0000
0001
0000
1000
0100
0010
0001
,
0100
0010
1000
0010
,
0110
0000
0001
0000
0011
0000
1000
0010
,
0100
0001
0010
0100
,
0001
0010
0100
1000
0001
0000
1000
0000
,
0220
0000
0330
0000
0001
0000
0100
0010
,
1000
0000
1000
0000
0100
0010
0001
0000
,
1000
0000
0010
0000
0100
0000
0001
0010
,
0100
1001
0010
1001
,
0100
0010
0100
0000
0001
0000
0010
0000
,
1000
0001
1000
0000
0010
0000
0100
0000
,
0001
0100
1010
0100
,
0001
0110
1000
0011
,
1000
0100
0010
0000
0001
0000
0100
0000
,
1000
0001
1000
0001
1000
0001
1000
0001
,
0110
0000
1001
0000
,
0010
1000
0100
0000
,
0010
0000
0000
1000
0000
0000
0000
0000
,
0010
0000
0000
0001
0000
0000
0000
0000
,
1000
0000
1000
0000
,
0001
0100
0020
0030
,
1000
0000
0000
0100
0000
0000
0000
0000
,
0001
0000
0000
0100
0000
0000
0000
0000
,
0010
0001
0100
0000
,
1000
1000
1000
0000
0001
0000
0100
0000
,
0001
0001
0001
0000
1000
0000
0100
0000
,
2002
0000
0000
3003
,
0010
0000
1000
0000
0001
0010
0100
0000
,
1000
0000
0010
0100
0001
0000
2200
0000
,
3300
0000
0001
0000
0010
0000
0100
1000
,
0001
0000
0100
1000
0100
0000
0001
0010
,
0100
1000
0010
0100
,
0001
0000
1000
0100
0010
0000
0001
0000
,
0202
0303
1000
0010
,
0100
0000
0001
0000
1000
0010
0100
0000
,
0010
0000
0100
0000
0001
0100
0010
0000
,
1000
0000
0100
0000
0010
0001
0100
0000
,
0010
1000
0100
0000
0010
0000
0001
0000
,
1000
0101
0010
1100
,
0001
0100
1000
0000
0100
0000
0001
0000
,
1000
0000
0001
0000
0100
0010
0100
0010
,
1001
0000
0110
0000
,
0010
1000
0100
1000
0010
0000
0000
0000
,
0100
0001
0010
0001
0100
0000
0000
0010
,
0200
0000
0000
0300
;

//---------------dance-single - MANIAC----------------
#NOTES:
     dance-single:
     MANIAC:
     Hard:
     8:
     0.474,0.565,0.069,0.168,0.138:
0000
0000
0000
0000
,
0010
0000
0000
0000
1000
0000
0100
0000
0010
0000
0001
0100
0000
0100
0010
0000
,
1000
0000
0000
0000
0100
0000
0010
0000
0001
0000
1000
0010
0000
0010
0100
0000
,
0001
0000
0000
0000
0100
0000
0010
0000
1000
0000
0001
0100
0000
0100
0010
0000
,
1000
0000
0000
0000
0001
0000
1000
0000
0100
0000
0010
0100
0000
0100
0010
0000
,
0001
1000
0100
0010
,
0001
0100
1000
0100
0001
0010
0100
0000
,
1000
0100
0001
0010
,
1000
0000
0001
0000
0100
0000
0000
0000
0010
0000
1000
0001
0000
0001
1000
0000
,
0000
0001
0100
0000
0010
0000
1000
0000
,
0100
0010
0001
0000
1000
0010
0100
0000
,
2002
0000
0000
0000
3003
0000
0000
0000
0010
0000
0000
0001
0000
1000
0001
0000
,
0100
0000
0000
0000
0100
0000
1000
0000
0001
0000
0000
0000
0001
0000
0100
0010
,
0100
2000
0100
3001
,
0010
0002
0100
1003
,
0100
0000
0000
0001
0000
0000
1000
0000
0100
0000
0000
0000
1000
0001
1000
0001
,
1000
0110
1010
0101
,
0010
0001
0100
0010
1000
0100
0100
0000
,
1000
0010
0100
0001
0010
1000
1000
0000
,
0010
0001
0100
0000
0010
1000
0100
0000
,
2000
3100
0020
0031
,
0100
0010
1000
0001
0100
0010
0010
0000
,
1000
1000
0001
0001
0100
0100
0010
0010
,
2002
0000
0000
0000
3003
0000
0100
0010
0100
0000
0000
0000
0000
0000
0000
0000
,
0001
1000
0001
0000
0100
0000
1000
0000
0100
0000
0001
1000
0001
0000
0100
0000
,
0020
0100
0000
0130
,
1000
0000
0000
0100
0000
0000
0001
0000
,
0100
0000
0000
0001
0000
0000
1000
0000
,
0200
0010
0001
1300
,
0010
0000
0000
0001
0000
0000
0100
0000
,
0010
0000
1000
0001
,
0200
0000
0000
0001
0000
0000
1300
0000
,
0100
0001
0010
0000
0100
0100
0100
0100
,
1000
0010
0100
0000
0010
0010
0010
0010
,
0200
0000
0000
0300
,
1000
0100
0010
0001
0100
0010
1000
0100
,
0010
0100
1000
0001
0100
1000
0100
0001
,
0010
0100
1000
0001
0010
1000
0010
0001
,
0100
0000
0010
0000
1000
0000
0100
0000
0010
0000
0001
0000
0100
0010
1000
0000
,
0001
0000
0100
0010
0001
0010
1000
0001
,
1000
0000
0000
0000
0001
0000
0001
0000
1000
0000
1000
0000
0100
0000
1000
0001
,
2000
0100
0010
3100
,
0001
0000
0001
0000
1000
0000
0100
0000
1100
0000
0000
0000
0001
0000
0100
0010
,
0100
0001
1000
0100
0010
0001
0001
0000
,
1000
0010
0100
0001
0010
1000
1000
0000
,
0010
0001
0100
0000
0010
1000
0100
0000
,
0002
0013
2000
3100
,
1000
0010
0100
0001
0010
1000
1000
0000
,
0010
0001
0100
1000
0001
0001
1000
1000
,
0220
0000
0000
0000
0330
0000
1000
0001
1000
0000
0000
0000
0000
0000
0000
0000
,
0001
0100
0001
0000
0100
0000
1000
0000
0100
0000
0001
1000
0100
0000
1000
0000
,
0010
0100
0010
0000
1000
0000
0100
0000
0001
0000
0100
1000
0001
0000
1000
0001
,
0100
0000
0000
0000
;

//---------------dance-double - MANIAC----------------
#NOTES:
     dance-double:
     MANIAC:
     Hard:
     9:
     0.513,0.539,0.069,0.069,0.158:
00000000
00000000
00000000
00000000
,
00100000
00010000
00001000
00010000
00100000
10000000
01000000
00100000
,
00001000
00010000
00001000
00000100
00000001
00000010
00000100
00001000
,
00000010
00000100
00000001
00001000
00000100
00000010
00001000
00010000
,
01000000
10000000
00100000
00000000
01000000
00010000
00100000
00000000
,
00010000
00000000
10000000
01000000
10000000
00000000
00100000
00000000
01000000
00000000
01000000
00000000
01000000
00000000
00000000
00000000
,
00010000
00100000
00001000
00000000
00010000
00001000
00000100
00000000
,
00000010
00000000
00001000
00000100
00001000
00000000
00000001
00000000
00000010
00000000
00000010
00000000
00000010
00000000
00000000
00000000
,
00001000
00000000
00010000
00000000
00100000
00000000
00010000
00000000
00001000
00000000
00100000
00010000
00000000
00100000
00010000
00000000
,
00000000
00000000
01000000
00000000
00000000
00000000
10000000
00010000
00000000
00000000
01000000
00000000
00000000
00000000
00010000
10000000
,
00000000
00000000
01000000
00000000
00010000
00000000
00001000
00000000
00000100
00000000
00000001
00000000
00001000
00000000
00000010
00000100
,
00000010
00000000
00001000
00000000
00000000
00000000
00000001
00000100
00000000
00000000
00000010
00000000
00000000
00000000
00001000
00000100
,
00001000
00000000
00000100
00000000
00010000
00000000
00001000
00000000
00011000
00000000
00000000
00000000
00100000
00000000
01000000
00100000
,
02000000
00000000
03020000
10000000
,
01030000
00000000
00100000
10000000
01000000
00010000
00001000
00000100
,
00000010
00000000
00000000
00000100
00000000
00000000
00000010
00000000
00000001
00000000
00001000
00000000
00000100
00000010
00000100
00000010
,
00000100
00001100
00011000
01010000
,
10000000
00000000
00010000
10000000
00010000
00000000
01000000
00000000
00100000
00000000
00010000
00000000
00001000
00000000
00000100
00000000
,
00000001
00000000
00001000
00000100
00001000
00000000
00000010
00000000
00010000
00000000
00001000
00000000
01000000
00000000
00100000
00000000
,
10000000
00000000
01000000
10000000
01000000
00000000
10000000
00000000
00010000
00000000
00100000
00010000
00100000
00000000
01000000
00000000
,
00010000
00001000
00000100
00000000
00000001
00000100
00001000
00000000
,
00011000
00000000
00000000
00000000
00100000
00000000
01000000
00100000
01000000
00000000
00010000
00000000
10000000
00000000
01000000
00000000
,
00010000
00000010
00010000
00001000
01000000
00001000
00010000
00000010
,
00011000
00000000
00000000
00100000
01000000
00000000
00000000
00000000
,
10000000
00010000
10000000
00010000
01000000
00000000
01000000
00000000
00001000
00000000
00010000
00001000
00010000
00000000
00001000
00000100
,
00000002
00000000
00000000
00000000
,
00001000
00000000
00000000
00000100
00000000
00000000
00001003
00000000
,
00000100
00000010
00000001
00000000
00001000
00000100
00010000
00000000
,
00001000
01000000
10000000
01000000
,
00020000
00000000
00000000
00000000
,
01000000
00000000
00000000
10000000
00000000
00000000
01030000
00000000
,
10000000
01000000
00010000
00000000
00100000
00000000
00001000
00000000
,
00010000
00010000
00010000
00000000
00001000
00010000
00001000
00010000
,
00000100
00000100
00000100
00000000
00001000
00010000
00001000
00010000
,
02000000
00000000
00000000
03010000
,
00001000
00000010
00000001
00000010
00001000
00010000
01000000
10000000
,
01000000
00010000
00001000
00000010
00000001
00000100
00001000
00010000
,
00100000
10000000
00100000
00010000
00001000
00000100
00000001
00000100
,
00001000
00000000
00000000
00010000
00100000
00000000
00000000
00000000
10000000
00000000
00010000
01000000
00000000
01000000
00010000
00000000
,
10000000
01000000
00010000
00001000
00000010
00000001
00000010
00001000
,
00010000
01000000
10000000
00100000
00010000
00001000
00000100
00000001
,
00000020
00000130
00000200
00000310
,
00000001
00000000
00000100
00000000
00000010
00000000
00010000
00000000
00001000
00000000
00000000
00000000
00000100
00000000
00000001
00000100
,
00000001
00000000
00001000
00000000
00000100
00000000
00000010
00000000
00001000
00000000
00010000
00000000
01000000
00000000
10000000
00100000
,
10000000
00010000
01000000
00100000
10000000
01000000
00010000
00001000
,
00010000
00001000
00000100
00000001
00000010
00000100
00001000
00000001
,
00000100
00000000
00000010
00001000
00000100
00000000
00000010
00000001
,
00000100
00000000
00001000
00010000
00001000
00000000
00010000
00000000
00100000
00000000
10000000
00000000
01000000
00000000
10000000
00000000
,
00010000
01000000
00100000
01000000
00010000
00001000
00000010
00001000
,
00000101
00000000
00000000
00000010
00010000
00000000
00000000
00001000
,
01000000
00010000
00100000
00000000
00001000
00000000
00010000
00000000
00000010
00000000
00001000
00000100
00000010
00000000
00001000
00000000
,
00010000
00001000
00100000
00000000
00010000
00000000
01000000
00000000
00100000
00000000
00010000
00001000
00010000
00000000
00000100
00000000
,
00000010
00000000
00000000
00000000
;

//---------------dance-double - TRICK----------------
#NOTES:
     dance-double:
     TRICK:
     Medium:
     6:
     0.367,0.385,0.148,0.069,0.005:
00000000
00000000
00000000
00000000
,
10000000
00010000
01000000
00000000
00001000
00000000
00010000
00000000
,
00000100
00001000
00000010
00000000
00000100
00000000
00000001
00000000
,
00001000
00000100
00000010
00000000
00001000
00000000
00010000
00000000
,
01000000
00100000
00010000
00000000
10000000
00000000
01000000
00000000
,
10000000
01000000
00010000
00000000
01000000
00000000
01000000
00000000
,
00100000
00000000
00010000
00001000
00010000
00001000
00010000
00000000
,
00000100
00000000
00001000
00000010
00000001
00000000
00000100
00000000
,
00000010
00000000
00001000
00000100
00001000
00000100
00001000
00000000
,
00000010
00010000
00001000
01000000
,
00010000
00000000
10000000
01000000
00010000
00000000
10000000
00000000
,
01000000
01000000
01000000
01000000
,
00010000
00001000
00010000
00000000
00010100
00000000
00001010
00000000
,
00000000
00000001
00001000
00000100
,
00010000
00001000
00010000
00000000
00100000
01000000
00010000
00000000
,
10000000
00000000
00000000
10000000
00000000
00000000
10000000
00000000
00010000
00000000
00000000
00000000
01100000
00000000
00000000
00000000
,
00010000
00001000
00000010
00001000
,
00010000
01000000
10000000
00000000
00100000
00000000
10100000
00000000
,
01000000
00010000
00001000
00000000
00001000
00000000
00001100
00000000
,
00000010
00000100
00000010
00000000
00001000
00000001
00001000
00000000
,
00000002
00002003
00003020
00000130
,
00001000
00010000
00100000
00000000
00010000
00000000
00011000
00000000
,
00100000
10000000
01000000
00000000
00010000
00000000
00110000
00000000
,
01010000
00000000
00011000
00000000
,
00001000
00000100
00000001
00001000
00000100
00000000
00010000
00000000
,
01000000
00000000
00000000
00000000
,
01000000
00000000
10000000
00010000
,
01000000
00000000
00100000
10000000
,
01000000
00000000
00010000
00000000
,
00001000
00000000
00000100
00000001
,
00000010
00000000
00000010
00000001
,
00000100
00000000
00001000
00000000
,
00010000
00001000
00010000
00000000
00001000
00001000
00001000
00001000
,
00010000
00001000
00010000
00000000
01000000
01000000
01000000
01000000
,
00200000
00000000
00300000
00000000
,
10000000
01000000
10000000
00000000
00010000
10000000
01000000
00000000
,
10000000
00010000
10000000
00000000
00100000
00010000
00001000
00000000
,
00010000
00011000
00000100
00000001
,
00001000
00000010
00000100
00000000
00000001
00000010
00000100
00000000
,
00001000
00000000
00000010
00000100
00000001
00000000
00001000
00000100
,
00010000
00001000
00010000
00000000
00001000
00100000
00010000
00000000
,
00100000
00100000
00100000
00100000
,
00010000
10000000
00010000
10000000
00010000
00000000
01100000
00000000
,
10000000
01000000
00100000
00000000
10000000
00000000
01010000
00000000
,
00100000
00010000
00001000
00000000
00010000
00000000
00010010
00000000
,
00001000
00000100
00000010
00000000
00001000
00000010
00000100
00000000
,
00000002
00002003
00003020
00000130
,
00001000
00010000
00000100
00000000
00010000
00000000
00011000
00000000
,
00100000
00000000
01000000
00000000
00010000
00100000
01000000
10000000
,
00010000
00000000
01100000
00000000
,
10000000
01000000
00010000
00001000
00000100
00000000
00000001
00000000
,
00000100
00001000
00010000
01000000
10000000
00000000
00010000
00000000
,
00100000
00000000
00000000
00000000
;

//---------------dance-double - BASIC----------------
#NOTES:
     dance-double:
     BASIC:
     Easy:
     4:
     0.245,0.334,0.178,0.020,0.000:
00000000
00000000
00000000
00000000
,
10000000
00010000
01000000
00100000
,
00001000
00010000
00000100
00000010
,
00000001
00000100
00000010
00001000
,
00000200
00000300
00000200
00000300
,
00010000
00000000
00001000
00000000
,
00100000
00010000
01000000
00100000
,
10000000
00000000
10000000
00000000
,
01000000
00010000
00001000
00000100
,
00000010
00000000
00000010
00000000
,
00000001
00000010
00001000
00010000
,
00100000
00100000
00100000
00100000
,
01000000
00000000
01000000
00000000
,
10000000
00000000
00000000
00000000
,
00010000
00000000
00000000
00000000
,
00001000
00000000
00000000
00000010
,
00001001
00001001
00001001
00001001
,
00000010
00001000
00000100
00010000
,
00100000
00001000
01000000
00010000
,
00000010
00001000
00000100
00000001
,
00001000
00010000
10000000
00010000
,
10000000
00100000
00010000
01000000
,
00001000
00000010
00000001
00000100
,
00001001
00000000
00011000
00000000
,
10010000
00000000
00000000
00000000
,
01100000
00000000
10000000
00000000
,
01000000
00000000
00000000
00000000
,
00100000
00000000
00010000
00000000
,
01000000
00000000
00000000
00000000
,
00010000
00000000
00001000
00000000
,
00000100
00000000
00000000
00000000
,
00000001
00000000
00001000
00000000
,
00000001
00000000
00001010
00001010
,
00000100
00000000
00011000
00011000
,
00100000
00000000
00000000
00000000
,
10000000
00010000
01000000
01000000
,
10000000
00010000
00100000
00100000
,
00001000
00010000
00000100
00000100
,
00001000
00000010
00000100
00000100
,
00000001
00000010
00001000
00001000
,
00010000
01000000
00100000
00100000
,
10000000
10000000
10000000
10000000
,
00100000
00010000
00001000
00000000
,
00001001
00000010
00000100
00000010
,
00001000
00001000
00000100
00000100
,
00001000
00010000
00100000
10000000
,
01100000
00000000
10010000
00000000
,
00011000
00000100
00000100
00000010
,
00001000
00000100
00000010
00000010
,
00000011
00000000
00001001
00000000
,
00000010
00001000
00000100
00000000
,
00100000
00000000
00010000
00000000
01000000
00000000
00000000
00010000
,
00100000
00000000
00000000
00000000
;
