#TITLE:TWINKLE SNOW POWDERY SNOW;
#SUBTITLE:;
#ARTIST:Perfume;
#TITLETRANSLIT:;
#SUBTITLETRANSLIT:;
#ARTISTTRANSLIT:;
#CREDIT:;
#BANNER:TWINKLE SNOW POWDERY SNOW.png;
#BACKGROUND:TWINKLE SNOW POWDERY SNOW-bg.png;
#LYRICSPATH:;
#CDTITLE:GAME.png;
#MUSIC:TWINKLE SHOW POWDERY SNOW.ogg;
#OFFSET:-0.308;
#SAMPLESTART:58.195;
#SAMPLELENGTH:15.000;
#SELECTABLE:YES;
#BPMS:0.000=132.000;
#STOPS:;
#BGCHANGES:-0.688=TWINKLE SNOW POWDERY SNOW.avi=1.000=1=1=0,
224.000=TWINKLE SNOW POWDERY SNOW-bg.png=1.000=1=0=0,
99999=-nosongbg-=1.000=0=0=0 // don't automatically add -songbackground-
;

//---------------dance-single - ----------------
#NOTES:
     dance-single:
     :
     Hard:
     7:
     0.393,0.430,0.270,0.122,0.044:
0000
0000
0000
0000
,
0000
0000
0000
0000
,
0000
0000
0000
0000
,
0000
0000
0000
0000
,
1001
0010
0100
0000
,
1100
0010
0001
1000
,
0011
0100
0010
1000
,
0001
1000
0001
1000
0001
1000
0001
0000
,
1000
0010
1000
0001
1000
0000
0101
0000
,
0010
1000
0010
0000
0100
0001
0100
0000
,
0010
0000
1100
0000
1000
0100
0010
0000
,
0001
1000
0010
1000
0010
0000
0101
0000
,
0010
1000
0001
1000
0100
0010
0001
0000
,
1000
0100
1000
0000
0001
0010
0001
0000
,
1000
0010
1000
0100
1000
0001
0100
0000
,
0010
0000
1000
0000
0001
0000
0000
0000
0011
0000
0000
0001
0000
0000
0002
0000
,
0000
0000
0003
0000
,
0001
0000
0100
0000
0010
0000
0000
0000
1010
0000
0000
1000
0000
0000
2000
0000
,
0100
0000
0000
0100
3000
0000
0000
0000
,
0010
0000
0001
0000
0100
0000
0000
0000
1010
0000
0000
1000
0000
0000
2000
0000
,
0000
0000
0000
0000
3000
0000
0000
0100
,
0001
0000
1000
0000
0100
0000
0000
0000
1001
0000
0000
0001
0000
0000
0002
0000
,
0010
0000
0000
0010
0003
0000
0001
0000
,
2000
0000
0000
3000
,
0001
0010
0001
0010
0002
0000
1003
0000
,
0100
0010
0001
1000
0020
0000
0130
0000
,
1000
0100
1000
0100
2000
0000
3001
0000
,
0010
1001
1000
0010
,
0100
0001
0100
0001
0200
0000
0310
0000
,
1000
0001
0010
0000
0100
1000
0010
1000
,
0100
0010
0001
1000
,
0020
0000
0000
0000
0000
0100
0130
0000
,
0001
0010
0001
1000
0001
0100
0001
0000
,
0010
0000
1001
0000
0010
0001
0100
0000
,
0010
1000
0100
1000
0001
0000
1001
0000
,
1000
0000
0011
0000
0100
0010
0001
0000
,
1000
0010
1000
0100
1000
0001
0010
0000
,
1100
0000
0010
0000
1001
0010
0100
0000
,
0001
0010
0100
1000
0010
0000
0101
0000
,
0010
1000
0100
0000
0011
0000
1000
0000
,
0001
0000
0100
0000
0010
0000
0100
0001
0000
0000
0100
0000
0000
0000
0010
0000
,
1000
0010
0000
1001
0000
0011
0000
0001
,
1000
0000
0100
0000
1000
0000
0010
0100
0000
0000
0010
0000
0000
0000
0100
0000
,
0001
1000
0000
0011
0000
1010
0000
1000
,
0100
0000
0010
0000
0100
0000
1000
0100
0000
0000
0010
0000
0000
0000
1000
0000
,
0001
0100
0000
0101
0000
1100
0000
0010
,
0001
0000
0100
0000
0001
0000
0010
0001
0000
0010
0001
0000
0000
0000
1000
0000
,
0100
0000
1000
0000
0001
0000
0000
0000
1100
0000
0000
0101
0000
0000
0020
0000
,
1000
0000
0130
0000
1000
0100
0010
0000
,
0001
1000
0100
0000
0010
0000
1001
0000
,
0010
0000
1100
0000
0010
0001
0100
0000
,
0010
1000
0100
1000
0001
0010
0100
0000
,
1000
0000
0101
0000
0010
0000
1000
0001
,
0100
0000
1010
0000
0100
0010
0001
0000
,
2000
0010
3100
0011
,
0002
0100
0013
0100
,
2000
0000
0000
0000
,
0000
0000
0000
0000
,
0000
3000
0000
0000
0000
0000
0000
0000
;

//---------------dance-single - ----------------
#NOTES:
     dance-single:
     :
     Medium:
     5:
     0.340,0.380,0.209,0.148,0.000:
0000
0000
0000
0000
,
0000
0000
0000
0000
,
0000
0000
0000
0000
,
0000
0000
0000
0000
,
1000
0100
1000
0000
,
0010
0002
0013
0000
,
1000
0001
1000
0000
,
0002
0103
0002
0103
,
0010
1000
0100
1000
,
0100
1100
1000
1100
,
0001
0010
0001
0100
,
0001
0101
0100
0101
,
0010
1000
1001
0001
,
1000
1100
1000
0101
,
1000
0100
1000
0000
0010
0000
0100
0000
,
0001
0100
0001
0000
0010
0000
0001
0000
,
1000
0100
0010
0000
,
0001
1000
0001
0000
,
1000
0010
1000
0000
,
0100
1000
0100
0000
,
1000
0000
1000
0000
1000
0000
1000
0100
,
0010
0000
0010
0000
0010
0000
0010
0001
,
0100
1000
0100
0000
0100
0001
0100
0000
,
1001
0000
0000
0000
,
1000
1000
2000
3100
,
0020
0031
0002
0103
,
0100
0100
0100
0020
,
1030
0200
1300
1000
,
0100
0100
0010
0000
0200
0000
1300
0000
,
0010
0010
0100
0000
0002
0000
1003
0000
,
2000
3200
0320
0032
,
0200
0000
0303
0101
,
1000
0100
1000
0100
,
0010
0001
0010
0000
0001
0100
0001
0000
,
1000
0001
1000
0001
,
0010
0100
0010
0000
0100
1000
0000
0000
,
0100
0000
1000
0000
0010
1000
0010
0000
,
0100
0001
0100
0000
0001
0000
1000
0000
,
0100
0000
0010
0000
0100
1000
0100
0000
,
1000
0001
1000
0000
0001
0000
0000
0000
,
1000
1001
0001
0101
,
0100
0000
0110
0000
0010
0010
1010
0000
,
1000
0000
1100
0000
0010
0000
0012
0003
,
0100
0000
1001
0000
1000
1000
1001
0000
,
1000
0110
0100
1001
,
1000
0000
0110
0000
0100
1000
1100
0000
,
0001
0000
0101
0000
0001
0100
0101
0000
,
0010
0100
1001
0000
1000
0000
1000
0000
,
1000
0100
1000
0100
1000
0100
1000
0000
,
0010
1000
0010
0000
0100
0010
0100
0000
,
0001
0100
0001
0010
0001
0100
0001
0000
,
1000
0000
0001
0000
1000
0001
1000
0000
,
0100
1000
0010
1000
0100
1000
0010
0000
,
1000
0001
0010
0001
,
0100
0001
0100
0010
0100
0010
1000
0000
,
1000
0000
0100
0000
0010
0100
1000
0000
,
2000
0000
0000
0000
,
0000
0000
0000
0000
,
0000
3000
0000
0000
0000
0000
0000
0000
;

//---------------dance-single - ----------------
#NOTES:
     dance-single:
     :
     Easy:
     3:
     0.249,0.329,0.113,0.218,0.000: // measure 1
0000
0000
0000
0000
,  // measure 2
0000
0000
0000
0000
,  // measure 3
0000
0000
0000
0000
,  // measure 4
0000
0000
0000
0000
,  // measure 5
1000
0100
1001
0000
,  // measure 6
0001
0110
1001
0000
,  // measure 7
1000
0000
1000
0000
,  // measure 8
1000
1000
1000
1000
,  // measure 9
0001
0001
0001
0001
,  // measure 10
1000
1000
0001
0001
,  // measure 11
0100
0100
0100
0100
,  // measure 12
0010
0010
1000
1000
,  // measure 13
0100
0100
0100
0100
,  // measure 14
0010
0010
0001
0001
,  // measure 15
1000
0001
1000
1000
,  // measure 16
0001
0001
1000
0001
,  // measure 17
0100
0000
0100
0000
,  // measure 18
0020
0000
0000
0030
,  // measure 19
2000
3000
1000
0000
,  // measure 20
0002
0000
0000
0003
,  // measure 21
1000
0000
2000
3000
,  // measure 22
0002
0000
0000
0003
,  // measure 23
0020
0030
0010
0200
,  // measure 24
2000
0000
0000
3300
,  // measure 25
1000
0100
1000
0100
,  // measure 26
0010
0000
0000
0000
,  // measure 27
0001
0100
0001
0100
,  // measure 28
0010
0000
0000
0000
,  // measure 29
1000
0001
1000
0001
,  // measure 30
1000
0000
0001
0000
,  // measure 31
2000
3020
0230
0302
,  // measure 32
2000
0000
0000
3003
,  // measure 33
1000
0000
0000
0000
,  // measure 34
0110
1001
0110
1001
,  // measure 35
0001
0000
0000
0000
,  // measure 36
1001
1001
0110
0110
,  // measure 37
0100
0000
1000
0000
,  // measure 38
0100
1000
1001
0000
,  // measure 39
0001
0000
0010
0000
,  // measure 40
0001
0010
0001
0001
,  // measure 41
1000
0010
1000
0001
,  // measure 42
1000
0001
0010
0001
,  // measure 43
1000
0001
1000
0001
,  // measure 44
1000
0010
1001
0000
,  // measure 45
0001
1000
0001
0010
,  // measure 46
0001
1000
0010
0000
,  // measure 47
1000
0100
0001
0010
,  // measure 48
2000
3200
0302
0023
,  // measure 49
0032
1000
1000
1000
,  // measure 50
0010
0010
1000
1003
,  // measure 51
2000
0001
0100
0001
,  // measure 52
0100
0010
0010
3001
,  // measure 53
0002
1000
1000
0010
,  // measure 54
1000
0100
0010
1003
,  // measure 55
2000
3010
0002
0013
,  // measure 56
0200
0310
0020
0130
,  // measure 57
2000
0000
0000
0000
,  // measure 58
0000
0000
0000
0000
,  // measure 59
0000
0000
0000
0000
0000
0000
0000
0000
0000
0000
0000
0000
0000
0000
0000
0000
0000
0000
0000
0000
0000
0000
0000
0000
0000
3000
0000
0000
0000
0000
0000
0000
0000
0000
0000
0000
0000
0000
0000
0000
0000
0000
0000
0000
0000
0000
0000
0000
0000
0000
0000
0000
0000
0000
0000
0000
0000
0000
0000
0000
0000
0000
0000
0000
0000
0000
0000
0000
0000
0000
0000
0000
0000
0000
0000
0000
0000
0000
0000
0000
0000
0000
0000
0000
0000
0000
0000
0000
0000
0000
0000
0000
0000
0000
0000
0000
0000
0000
0000
0000
0000
0000
0000
0000
0000
0000
0000
0000
0000
0000
0000
0000
0000
0000
0000
0000
0000
0000
0000
0000
0000
0000
0000
0000
0000
0000
0000
0000
0000
0000
0000
0000
0000
0000
0000
0000
0000
0000
0000
0000
0000
0000
0000
0000
0000
0000
0000
0000
0000
0000
0000
0000
0000
0000
0000
0000
0000
0000
0000
0000
0000
0000
0000
0000
0000
0000
0000
0000
0000
0000
0000
0000
0000
0000
0000
0000
0000
0000
0000
0000
0000
0000
0000
0000
0000
0000
0000
0000
0000
0000
0000
0000
;
