#TITLE:TKO;
#SUBTITLE:;
#ARTIST:DJ U☆HEY?;
#TITLETRANSLIT:;
#SUBTITLETRANSLIT:;
#ARTISTTRANSLIT:;
#CREDIT:;
#BANNER:TKO.png;
#BACKGROUND:TKO-bg.png;
#LYRICSPATH:;
#CDTITLE:Shibuya Rave 2.png;
#MUSIC:TKO.ogg;
#OFFSET:0.000;
#SAMPLESTART:13.159;
#SAMPLELENGTH:12.000;
#SELECTABLE:YES;
#BPMS:0.000=145.000;
#STOPS:;
#BGCHANGES:;

//---------------dance-single - ----------------
#NOTES:
     dance-single:
     :
     Hard:
     8:
     0.480,0.532,0.326,0.024,0.127:
0000
0000
0000
0000
,
0000
0000
0000
0000
,
0000
0000
0000
0000
,
0000
0000
0000
0000
,
0000
0000
0000
0000
,
0000
0000
0000
0000
,
0000
0000
0000
0000
,
0000
0000
0000
0000
,
0010
1000
0001
1000
0100
1000
0010
0100
,
0001
0010
0001
0100
0010
0100
0001
0100
,
0010
1000
0001
1000
0100
1000
0010
0100
,
0001
0010
0001
0100
0001
0010
0001
0000
,
0100
0001
1000
0001
0010
0001
0100
0010
,
1000
0100
1000
0010
0100
0010
1000
0010
,
0100
0001
1000
0001
0010
0001
0100
0010
,
1000
0100
1000
0010
1000
0100
1000
0000
,
0011
0000
0000
0000
1010
0000
0000
0000
1000
0010
0000
0000
0101
0000
0000
0000
,
0001
0000
0100
0000
0001
0000
0010
0001
0000
0100
0001
0000
0010
0000
0000
0000
,
0101
0000
0000
0000
1100
0000
0000
0000
0001
0100
0000
0000
1010
0000
0000
0000
,
0001
0000
0100
0000
0010
0000
1000
0100
0000
1000
0010
0000
1000
0000
0000
0000
,
0011
0000
0000
0000
1100
0000
0000
0000
0010
0100
0000
0000
0110
0000
0000
0000
,
0100
0000
0001
0000
1000
0000
0100
1000
0000
0010
1000
0000
0100
0000
0000
0000
,
0110
0000
0000
0000
1001
0000
0000
0000
0010
0001
0000
0000
0011
0000
0000
0000
,
1010
1000
1000
0000
,
0010
0001
0100
0010
1000
0100
0010
0001
,
0000
0010
0000
0100
1000
0000
0000
0000
,
0100
1000
0010
0100
0001
0010
0100
1000
,
0000
0010
0000
0100
0001
0000
0000
0000
,
0001
0100
0001
1000
0010
1000
0100
0010
,
0000
0001
0000
1000
0010
0000
0000
0000
,
1000
0010
0001
1000
0100
0001
0010
0100
,
0000
1000
0000
0001
0010
0000
0010
0000
,
0001
0100
0001
0000
1000
0010
1000
0000
,
0001
0100
0001
0100
0001
0000
0000
0000
,
1000
0100
0010
0000
0001
0100
0010
0000
,
1000
0001
0100
0001
0010
0000
0000
0000
,
0100
1000
0100
0000
0010
0001
0010
0000
,
0100
1000
0100
1000
0100
0000
0000
0000
,
0010
0001
1000
0000
0100
0010
0001
0000
,
0100
0010
0100
0001
0100
0000
0000
0000
,
1100
0000
0000
0000
0101
0000
0000
0000
0010
0001
0000
0000
1010
0000
0000
0000
,
1000
0000
0100
0000
0010
0000
0001
0100
0000
0010
1000
0000
0001
0000
0000
0000
,
1010
0000
0000
0000
0011
0000
0000
0000
1000
0100
0000
0000
0101
0000
0000
0000
,
0001
0000
0100
0000
1000
0000
0100
0001
0000
0100
1000
0000
0100
0000
0000
0000
,
0101
0000
0000
0000
1100
0000
0000
0000
0010
0001
0000
0000
0011
0000
0000
0000
,
1000
0000
0010
0000
0100
0000
0001
0010
0000
0100
1000
0000
0001
0000
0000
0000
,
1010
0000
0000
0000
0011
0000
0000
0000
1000
0100
0000
0000
1001
0000
0000
0000
,
0110
0000
0000
0000
0010
0000
0000
0000
0010
0001
0000
0000
1000
0000
0010
0000
,
2002
0000
0000
0000
0000
0000
0000
3003
;

//---------------dance-single - ----------------
#NOTES:
     dance-single:
     :
     Medium:
     6:
     0.418,0.471,0.121,0.145,0.000: // measure 1
0000
0000
0000
0000
,  // measure 2
0000
0000
0000
0000
,  // measure 3
0000
0000
0000
0000
,  // measure 4
0000
0000
0000
0000
,  // measure 5
0000
0000
0000
0000
,  // measure 6
0000
0000
0000
0000
,  // measure 7
0000
0000
0000
0000
,  // measure 8
0000
0000
0000
0000
,  // measure 9
1000
0000
0001
0000
0010
0100
1000
0000
,  // measure 10
0001
0100
0001
1000
0001
0000
1000
0000
,  // measure 11
0001
0000
0010
0000
0100
1000
0010
0000
,  // measure 12
0100
0001
0010
0001
1000
0000
0001
0000
,  // measure 13
1000
0000
0100
0000
0010
0001
1000
0000
,  // measure 14
0010
0100
0001
1000
0001
0000
0100
0000
,  // measure 15
0010
0000
1000
0000
0100
0010
0001
0000
,  // measure 16
1000
0001
1000
0100
1000
0000
0001
0000
,  // measure 17
0100
0010
1000
0002
0000
0103
0010
2000
,  // measure 18
0000
3100
0010
0002
0000
0003
1000
0000
,  // measure 19
0001
0100
0010
2000
0000
3100
0010
0002
,  // measure 20
0000
1003
0010
2000
3000
0001
1000
0000
,  // measure 21
0001
0100
0001
2000
0000
3010
1000
0200
,  // measure 22
0000
0310
0001
2000
0000
3000
0001
0000
,  // measure 23
1000
0001
0100
0020
0000
1030
0001
0000
,  // measure 24
1000
1000
1000
0000
,  // measure 25
0001
0000
1000
0000
0100
1000
0100
0000
,  // measure 26
0010
0001
0100
0001
1000
0001
1000
0000
,  // measure 27
0010
0000
1000
0000
0100
1000
0100
0000
,  // measure 28
0010
0001
0100
0010
1000
0001
1000
0000
,  // measure 29
0100
0000
0010
0000
0001
1000
0001
0000
,  // measure 30
0001
0100
1000
0100
0001
1000
0001
0000
,  // measure 31
1000
0000
0100
0000
0010
0001
1000
0000
,  // measure 32
0010
1000
0100
1000
0001
0000
1000
0000
,  // measure 33
1000
1001
0100
1100
,  // measure 34
0010
0000
0001
1000
0001
0000
0100
0000
,  // measure 35
0010
1001
0010
1100
,  // measure 36
0010
0001
0100
0001
1000
0000
0001
0000
,  // measure 37
0100
1010
0100
0011
,  // measure 38
0100
0001
1000
0000
0001
0000
1001
0000
,  // measure 39
1000
0110
0010
0101
,  // measure 40
0100
0010
1000
0001
1000
0001
1000
0001
,  // measure 41
1000
0000
0001
1000
0000
0001
1000
0100
,  // measure 42
0000
0010
0001
1000
0000
0001
1000
0000
,  // measure 43
0001
0100
0010
1000
0000
1000
0100
0010
,  // measure 44
0000
0010
0001
1000
0000
0001
1000
0000
,  // measure 45
0001
0100
0010
0100
0000
0001
1000
0100
,  // measure 46
0000
0001
0100
1000
0000
0001
0100
0000
,  // measure 47
1000
0100
0010
1000
0000
0100
0010
0000
,  // measure 48
0100
0100
0100
0100
,  // measure 49
2002
0000
0000
3003
;

//---------------dance-single - ----------------
#NOTES:
     dance-single:
     :
     Easy:
     4:
     0.261,0.353,0.121,0.073,0.000: // measure 1
0000
0000
0000
0000
,  // measure 2
0000
0000
0000
0000
,  // measure 3
0000
0000
0000
0000
,  // measure 4
0000
0000
0000
0000
,  // measure 5
0000
0000
0000
0000
,  // measure 6
0000
0000
0000
0000
,  // measure 7
0000
0000
0000
0000
,  // measure 8
0000
0000
0000
0000
,  // measure 9
1000
0100
1000
0100
,  // measure 10
1000
0100
1000
0000
,  // measure 11
0001
0010
0001
0010
,  // measure 12
0001
0010
0001
0000
,  // measure 13
0100
0001
0100
0001
,  // measure 14
0100
0001
0100
0000
,  // measure 15
0010
1000
0010
1000
,  // measure 16
0010
1000
0010
0001
,  // measure 17
1000
0000
0001
0000
,  // measure 18
1000
0100
0010
0000
,  // measure 19
0001
0000
1000
0000
,  // measure 20
0001
0100
0010
1000
,  // measure 21
0001
0000
1000
0000
,  // measure 22
0001
0100
1000
0000
,  // measure 23
1000
0000
0001
0000
,  // measure 24
1001
1001
1001
0000
,  // measure 25
1000
0001
1000
0001
,  // measure 26
0010
0100
0010
0110
,  // measure 27
0100
1000
0100
1000
,  // measure 28
0010
1000
0010
1001
,  // measure 29
0001
0010
0001
0010
,  // measure 30
0001
0010
0100
0110
,  // measure 31
0100
1000
0010
1000
,  // measure 32
0001
0100
0010
1001
,  // measure 33
1000
0000
0001
0000
,  // measure 34
2000
0100
3100
0000
,  // measure 35
0001
0000
0010
0000
,  // measure 36
0200
1000
1300
0000
,  // measure 37
1000
0000
0010
0000
,  // measure 38
0200
0001
0301
0000
,  // measure 39
1000
0000
0100
0000
,  // measure 40
0020
0001
0031
0000
,  // measure 41
1000
0001
1000
0001
,  // measure 42
0100
0010
0100
0010
,  // measure 43
1000
0100
1000
0100
,  // measure 44
0010
0001
0010
0001
,  // measure 45
0100
0010
0100
0010
,  // measure 46
1000
0001
1000
0001
,  // measure 47
1000
0010
1000
0010
,  // measure 48
1000
1001
0001
1001
,  // measure 49
2002
0000
0000
3003
;
