#TITLE:THE WOAH SONG;
#SUBTITLE:;
#ARTIST:DJ DAZ;
#TITLETRANSLIT:;
#SUBTITLETRANSLIT:;
#ARTISTTRANSLIT:;
#CREDIT:;
#BANNER:THE WOAH SONG.png;
#BACKGROUND:THE WOAH SONG-bg.png;
#LYRICSPATH:;
#CDTITLE:The Woah Song-cd.png;
#MUSIC:THE WOAH SONG.mp3;
#OFFSET:-7.714;
#SAMPLESTART:51.968;
#SAMPLELENGTH:12.000;
#SELECTABLE:YES;
#BPMS:0.000=124.976;
#STOPS:;
#BGCHANGES:;

//---------------dance-single - ----------------
#NOTES:
     dance-single:
     :
     Easy:
     2:
     0.196,0.259,0.139,0.139,0.000:
1000
0001
0000
0000
,
0010
0100
0000
0000
,
1000
0100
0000
0000
,
1000
0001
0000
0000
,
0010
0100
0000
0000
,
0010
0001
0000
0000
,
1000
0100
0000
0000
,
0001
2000
0000
0000
,
3001
0010
0100
1000
,
0000
0001
1000
0001
,
0000
0010
0100
0010
,
0000
1000
0100
1000
,
0000
0001
0001
0001
,
0000
1000
1000
1000
,
0000
0010
0010
0010
,
0000
0000
0000
0000
,
0000
1001
1001
0110
,
0000
0110
0110
1001
,
0000
0100
0000
1000
,
0000
0001
0010
0100
,
0000
1000
0100
0010
,
0000
0001
0001
1000
,
1001
0010
0100
1000
,
0001
0100
0000
0001
,
1000
0200
0000
0000
,
2300
3200
0000
0000
,
0300
0002
0000
0000
,
0023
0230
0000
0000
,
0300
0020
0000
0000
,
0230
2300
0000
0000
,
3000
0200
0000
0000
,
0320
2030
0000
0000
,
3000
0001
0001
0001
,
0000
1000
1000
1000
,
0000
0100
0100
0100
,
0000
0010
0010
0010
,
0000
1001
1001
1001
,
0000
0110
0110
0110
,
0000
1000
0100
1000
,
0001
1000
0001
0100
,
0001
1000
0000
0000
;

//---------------dance-single - ----------------
#NOTES:
     dance-single:
     :
     Medium:
     4:
     0.277,0.323,0.107,0.075,0.000:
1000
0000
0001
0100
0001
0000
0010
0000
,
0100
2000
0000
0000
,
3000
0000
0001
0000
0010
0100
1000
0000
,
0001
0200
0000
0000
,
0300
0000
0010
0000
0100
1000
0001
0000
,
0100
0020
0000
0000
,
0030
0000
0010
0000
0100
1000
0001
0000
,
0100
0020
0000
1000
,
1030
0000
0100
1000
0100
0000
0100
0000
,
0001
0010
0100
1000
,
0001
0101
0000
0100
,
1000
1010
0000
0000
,
0001
0000
0010
0000
0100
0000
1000
0001
,
0100
0010
0000
0100
,
0000
1000
1000
0001
,
0001
0000
0010
0100
1000
0000
1000
0100
,
0010
0011
1100
0011
,
1100
0000
0101
1010
,
0101
0000
0100
0000
1000
0000
0001
0100
,
0001
1000
0100
0000
,
0001
0000
0010
0000
0100
0000
1000
0001
,
0100
0000
0100
0000
0010
0000
0001
1000
,
1100
0001
0100
0010
,
0100
0002
0000
0000
,
1003
0000
0010
0100
1000
0000
1000
0000
,
0001
0000
0100
0010
0100
0000
0001
0000
,
1000
0000
0100
0010
0100
0000
1000
0000
,
0001
0200
0000
0000
,
0301
0000
0010
0100
1000
0000
0001
0000
,
0100
0000
0010
0000
1000
0000
0001
1000
,
0001
0200
0000
0000
,
0310
1000
0100
0010
,
0001
0000
0001
1000
0100
0000
1000
0001
,
0100
0000
0001
0100
0001
0000
1000
0100
,
1000
0001
0001
1000
,
1000
0000
0100
0000
0100
0000
0010
0100
,
0010
0001
0001
1000
,
1000
0000
0001
0100
0001
0000
1000
0100
,
1000
0000
0010
1000
0100
0000
0100
1000
,
0010
1000
1000
0001
,
0001
0100
0000
0000
;

//---------------dance-single - Maniac----------------
#NOTES:
     dance-single:
     Maniac:
     Hard:
     6:
     0.393,0.345,0.075,0.000,0.000:
0001
1000
0100
0010
0100
1000
0001
0100
,
0000
0010
1000
0000
0100
0000
0000
0000
,
1000
0100
0001
0100
1000
0010
0100
0010
,
0000
1000
0100
0000
0010
0000
0000
0000
,
0001
1000
0100
0010
0100
1000
0001
0100
,
0000
0001
0100
0000
0001
0000
0000
0000
,
1000
0100
0010
0100
1000
0100
0010
0100
,
0000
1000
0001
0000
0100
0000
0001
0100
,
0001
0000
0001
0100
0001
1000
0100
0010
,
0100
0000
1000
0001
0100
0001
1000
0100
,
0000
1000
0001
0000
1000
0100
0010
0100
,
1000
0000
0010
0100
0001
0000
0100
0001
,
0010
0000
0011
0000
0001
1000
0100
1000
,
0001
0100
0010
1000
,
0100
0000
1000
0000
0001
1000
0001
0010
,
0001
0000
0010
0100
1000
0000
1000
0010
,
0100
0000
0100
0010
1000
0100
0010
0100
,
1000
0000
0001
0000
1000
0000
0100
1000
,
0100
0000
1000
0000
0001
0100
0001
0100
,
0001
0000
1000
0100
0010
0100
1000
0001
,
0100
0000
0010
0100
0001
0010
0100
0010
,
0001
0000
0100
0001
1000
0100
1000
0001
,
0100
0000
0001
0010
1000
0000
1000
0010
,
0001
0000
0001
0100
1000
0100
0001
0010
,
0100
0000
1000
0001
0100
0001
1000
0100
,
0000
0010
0100
0000
1001
0000
0000
0000
,
0100
0010
1000
0010
0100
0001
0010
0100
,
0000
1000
0001
0000
0101
0000
0000
0000
,
0010
0100
1000
0001
0010
0001
0100
0001
,
0000
1000
0100
0000
1100
0000
0000
0000
,
0010
0100
1000
0001
0100
0010
1000
0100
,
0000
1000
0001
0000
0101
0000
1100
0000
,
1001
0000
0001
0100
0010
1000
0010
0100
,
0010
0001
0010
1000
0100
0010
0100
0000
,
1000
0001
0100
0001
0010
0100
0010
1000
,
0010
0001
0100
0010
1000
0000
1000
0001
,
0100
0000
0001
0010
0100
1000
0010
0100
,
0010
0001
0010
1000
0100
0010
0100
1000
,
0001
0100
0001
1000
0000
0100
1000
0100
,
0000
1000
0001
0100
0000
0001
0010
0100
,
1000
0001
0100
0000
0000
0000
0000
0000
;

//---------------dance-single - ----------------
#NOTES:
     dance-single:
     :
     Beginner:
     1:
     0.139,0.172,0.193,0.000,0.000:
0000
0010
0000
0000
,
0000
0010
0000
0100
,
0000
1001
0000
0000
,
0000
1000
0000
1000
,
0000
1001
0000
0000
,
0000
0001
0000
0001
,
0000
0110
0000
0000
,
0000
0010
0000
1001
,
1001
1001
0000
0000
,
0000
0100
0100
0100
,
0000
0010
0000
0000
,
0000
1000
1000
1000
,
0000
0001
0000
0000
,
0000
0010
0010
0010
,
0000
1000
0000
0000
,
0000
0100
0100
0100
,
0000
0010
0000
1001
,
0000
1001
0000
0000
,
0000
0100
0000
0110
,
0000
0110
0000
0000
,
0000
0010
0000
1000
,
0000
1001
0000
0000
,
0000
0001
0000
0100
,
0000
1001
0000
0000
,
0000
0010
0000
1000
,
0000
0001
0001
0001
,
0000
0001
0000
0010
,
0000
1000
1000
1000
,
0000
0100
0000
0010
,
0000
1000
1000
1000
,
0000
0001
0000
1000
,
0000
1001
1001
1001
,
0000
0010
0000
0000
,
0000
0100
0000
0000
,
0000
0001
0000
0000
,
0000
1000
0000
0010
,
0000
1000
0000
0000
,
0000
0001
0000
1000
,
0000
1001
0000
0110
,
0000
1001
0000
0000
,
0000
0001
0000
0000
;

//---------------dance-single - Challenge----------------
#NOTES:
     dance-single:
     Challenge:
     Challenge:
     9:
     0.501,0.431,0.300,0.129,0.354:
1000
0000
0001
0000
1000
0000
0100
1000
0000
0100
1000
0001
1000
0000
0200
0000
,
0000
0010
1300
0000
1001
0000
0000
0000
,
0100
0000
0010
0000
0100
0000
0010
1000
0000
0100
0010
0100
0010
0000
0002
0000
,
0000
0010
0103
0000
0110
0000
0000
0000
,
0001
0000
1000
0000
0001
0000
0010
0001
0000
0010
0001
1000
0001
0000
0020
0000
,
0000
0100
0031
0000
1001
0000
0000
0000
,
0010
0000
0100
0000
0010
0000
0100
0001
0000
0010
0100
0010
0100
0000
2000
0000
,
0000
0100
3010
0000
0110
0000
1001
0000
,
1100
0000
0000
0000
0001
1000
0001
0000
0010
0000
0100
0000
1000
0001
1000
0000
,
0100
0000
0000
0000
0001
0010
0100
1000
0100
0000
1000
0000
0001
0000
0100
0000
,
0000
0000
0010
0000
1001
0000
0000
0000
0010
0100
0010
0100
0010
0000
1000
0000
,
0100
0000
0010
0001
0100
0000
1000
0001
,
1000
0000
1001
0000
1001
0000
0000
0000
0100
0010
1000
0000
0100
0000
0010
0000
,
0100
0000
1000
0000
0000
0010
0100
0010
0100
0000
0000
0001
0000
0000
0010
0100
,
0010
0000
1000
0000
0000
0000
0000
1000
0100
0000
1000
0000
0001
0000
0100
0000
,
0001
0000
0010
0100
1000
0000
0010
0100
,
0001
0000
0000
0000
1000
0100
0000
0010
0000
0001
0010
0000
0100
1000
0000
1000
,
0100
0000
0000
0000
0000
0001
0100
0000
0100
0000
0001
0000
0001
0000
0100
0000
,
1001
0000
0000
0000
0000
0000
0000
0000
0010
0100
0010
0100
1000
0000
0001
1000
,
0001
0000
0000
0000
0000
0010
1000
0001
1000
0000
1000
0001
0000
0100
0000
0010
,
0100
0010
0000
0000
0000
0100
0010
0000
1000
0000
0001
0000
0100
1000
0100
0000
,
0001
0000
0000
0000
0010
0000
0100
0000
0010
0000
1000
0100
1000
0000
1001
0000
,
0101
0000
0001
0010
1100
1000
0001
0100
,
0101
0000
0001
0010
0110
0010
1001
1000
,
0001
0000
1000
0000
0001
0000
0010
0001
0000
0010
0001
1000
0001
0000
0020
0000
,
0000
0100
0031
0000
1001
0000
0000
0000
,
0010
0000
0100
0000
0010
0000
0100
0001
0000
0010
0100
0010
0100
0000
2000
0000
,
0000
0100
3010
0000
0110
0000
0000
0000
,
1000
0000
0001
0000
1000
0000
0100
1000
0000
0100
1000
0001
1000
0000
0200
0000
,
0000
0010
1300
0000
1001
0000
0000
0000
,
0100
0000
0010
0000
0100
0000
0010
1000
0000
0100
0010
0100
0010
0000
0002
0000
,
0000
0010
0103
0000
0110
0000
1001
0000
,
1000
0000
0001
0000
1000
0000
0100
1000
0000
0100
1000
0001
1000
0000
0200
0000
,
0000
0010
1300
0000
1001
0000
0000
0000
,
0100
0000
0010
0000
0100
0000
0010
1000
0000
0100
0010
0100
0010
0000
0002
0000
,
0000
0010
0103
0000
0110
0000
0000
0000
,
0001
0000
1000
0000
0001
0000
0010
0001
0000
0010
0001
1000
0001
0000
0020
0000
,
0000
0100
0031
0000
1001
0000
0000
0000
,
0010
0000
0100
0000
0010
0000
0100
0001
0000
0010
0100
0010
0100
0000
2000
0000
,
0000
0100
3010
0000
0110
0000
1100
0000
,
0011
1100
0000
0000
;
