#TITLE:THE SPACE WE ARE;
#SUBTITLE:(john o'callaghan remix);
#ARTIST:ronski speed;
#TITLETRANSLIT:;
#SUBTITLETRANSLIT:;
#ARTISTTRANSLIT:;
#CREDIT:;
#BANNER:THE SPACE WE ARE (John O'Callaghan Remix).png;
#BACKGROUND:THE SPACE WE ARE (John O'Callaghan Remix)-bg.png;
#LYRICSPATH:;
#CDTITLE:The Space We Are.png;
#MUSIC:THE SPACE WE ARE (John O'Callaghan Remix).ogg;
#OFFSET:0.000;
#SAMPLESTART:41.198;
#SAMPLELENGTH:14.580;
#SELECTABLE:YES;
#BPMS:0.000=138.000;
#STOPS:;
#BGCHANGES:;

//---------------dance-single - ----------------
#NOTES:
     dance-single:
     :
     Hard:
     7:
     0.448,0.480,0.272,0.605,0.000:
0000
0000
0000
0000
,
0000
0000
0000
0000
,
0000
0000
0000
0000
,
0000
0000
0000
0000
,
0000
0000
0000
0000
,
0000
0000
0000
0000
,
0000
0000
0000
0000
,
0000
0000
0000
0000
,
1010
0000
0001
0000
0100
0001
0010
0000
,
1010
0000
0001
0000
0100
0001
0010
0000
,
1010
0000
0001
0000
0100
0000
0010
1000
,
0001
1000
0000
0001
1000
0000
0100
0000
,
0011
0000
1000
0000
0100
1000
0010
0000
,
0011
0000
1000
0000
0010
1000
0100
0000
,
0011
0000
0100
0000
1000
0000
0001
1000
,
0010
0100
0000
0010
0100
0000
0010
0000
,
1001
0000
0010
0000
0001
1000
0100
0000
,
1001
0000
0010
0000
0001
1000
0100
0000
,
1001
0000
0010
0000
0100
0000
1000
0001
,
1000
0100
0000
1000
0100
0000
0010
0000
,
0101
0000
0010
0000
1000
0100
0010
0000
,
0101
0000
0010
0000
1000
0100
0010
0000
,
0001
0000
1000
0000
0010
0000
0100
0001
,
0010
0001
0000
0010
0001
0000
1000
0000
,
0002
0023
0230
2300
,
3002
0203
0320
2030
,
3002
0203
2300
3200
,
0302
0023
2030
3002
,
2003
3020
0230
2300
,
3020
2030
3200
2300
,
3020
0230
0302
0203
,
0320
0032
0013
0000
,
2000
3200
0302
0023
,
0032
0203
2300
3200
,
2300
3002
0203
2300
,
3020
2030
3200
0302
,
0023
0230
2300
3200
,
0302
0203
0320
0032
,
0203
2300
3200
0302
,
0023
0032
0003
0000
,
1100
0000
0001
1000
0001
0100
0001
1000
,
0001
0000
1100
0000
0001
0100
0001
0000
,
0110
0000
1001
0000
0100
0000
1000
0100
,
0000
1001
0000
0010
0001
0000
1000
0000
,
0101
0000
1000
0010
1000
0001
1000
0010
,
1000
0000
0011
0000
0100
1000
0001
0000
,
1010
0000
0101
0000
0010
0000
1000
0001
,
0000
0110
0000
0001
1000
0000
0010
0000
,
1001
0000
1010
0000
0001
1000
0100
0000
,
0011
0000
0010
0100
0001
0100
0001
0100
,
0010
0000
0001
0000
1000
0000
0001
0010
,
0000
1001
0000
0100
1000
0000
0010
0000
,
0100
0000
0001
0000
0010
0100
1000
0000
,
0001
0000
0100
0000
0010
1000
0001
0000
,
0110
0000
1001
0000
0010
0000
1000
0001
,
0000
1000
0000
0001
1000
0000
0001
0000
,
0100
0000
0000
0000
;

//---------------dance-single - ----------------
#NOTES:
     dance-single:
     :
     Medium:
     5:
     0.342,0.424,0.121,0.272,0.000:
0000
0000
0000
0000
,
0000
0000
0000
0000
,
0000
0000
0000
0000
,
0000
0000
0000
0000
,
0000
0000
0000
0000
,
0000
0000
0000
0000
,
0000
0000
0000
0000
,
0000
0000
0000
0000
,
2001
0000
3100
0000
0010
0001
1000
0000
,
2001
0000
3100
0000
0010
0001
1000
0000
,
0010
0100
0001
1000
,
0010
0100
0001
0000
,
1200
0000
0310
0000
0001
0100
0010
0000
,
1200
0000
0310
0000
0001
0100
0010
0000
,
1000
0001
0100
0010
,
1000
0100
0010
0000
,
0120
0000
0031
0000
0100
0010
1000
0000
,
0120
0000
0031
0000
0100
0010
1000
0000
,
0001
0100
0010
1000
,
0001
0010
0001
0000
,
1200
0000
1300
0000
0010
0100
0001
0000
,
1200
0000
1300
0000
0010
0001
0100
0000
,
0010
1000
0001
0000
,
1000
1000
1000
0000
,
0001
0010
0100
1000
,
0010
0100
0001
1000
,
0010
0100
0001
0010
,
0100
1000
0001
0010
,
0100
1000
0010
0100
,
0001
0010
1000
0010
,
0100
0001
0100
0010
,
0001
0100
0010
0000
,
1000
0200
1300
0020
,
0130
0002
0013
0002
,
1003
0200
0310
0002
,
0103
0020
1030
0002
,
0103
0020
1030
0200
,
0301
0200
1300
0020
,
0031
0020
1030
0200
,
0310
0002
1003
0000
,
1000
0000
0010
0000
0100
0001
1000
0000
,
0010
0000
1000
0000
0001
0010
0001
0000
,
1000
0010
1000
0000
,
0001
1000
0001
0000
,
2001
0000
3100
0000
0010
0001
1000
0000
,
0210
0000
0301
0000
1000
0100
0010
0000
,
0001
1000
0010
0100
,
0001
1000
0001
0000
,
1000
0000
0010
0000
0100
0001
1000
0000
,
0100
0000
0010
0000
0001
0010
1000
0000
,
0010
0001
0100
0010
,
1000
0001
1000
0000
,
2001
0000
3010
0000
0100
0001
0010
0000
,
1200
0000
0310
0000
0001
0100
0010
0000
,
1000
0001
1000
0001
,
1000
0100
0010
0001
,
1000
0000
0000
0000
;

//---------------dance-single - ----------------
#NOTES:
     dance-single:
     :
     Easy:
     3:
     0.170,0.254,0.000,0.151,0.000: // measure 1
0000
0000
0000
0000
,  // measure 2
0000
0000
0000
0000
,  // measure 3
0000
0000
0000
0000
,  // measure 4
0000
0000
0000
0000
,  // measure 5
0000
0000
0000
0000
,  // measure 6
0000
0000
0000
0000
,  // measure 7
0000
0000
0000
0000
,  // measure 8
0000
0000
0000
0000
,  // measure 9
1000
0000
0001
1000
,  // measure 10
0001
0000
0010
0001
,  // measure 11
1000
0000
0000
0000
,  // measure 12
0000
0000
0000
0000
,  // measure 13
0010
0000
1000
0100
,  // measure 14
0010
0000
0001
0100
,  // measure 15
0010
1000
0000
0000
,  // measure 16
0000
0000
0000
0000
,  // measure 17
0010
0000
0100
1000
,  // measure 18
0010
0000
0100
0001
,  // measure 19
1000
0000
0000
0000
,  // measure 20
0000
0000
0000
0000
,  // measure 21
0001
0000
0010
0100
,  // measure 22
1000
0000
0010
0100
,  // measure 23
0001
1000
0000
0000
,  // measure 24
0000
0000
0000
0000
,  // measure 25
1000
0000
0001
0000
,  // measure 26
1000
0000
0001
0000
,  // measure 27
0010
0000
0100
0000
,  // measure 28
0010
0000
0100
0000
,  // measure 29
1000
0000
0001
0000
,  // measure 30
1000
0000
0001
0000
,  // measure 31
0100
0000
0010
0000
,  // measure 32
0100
0000
0010
0000
,  // measure 33
2000
0000
3002
0000
,  // measure 34
2003
0000
3002
0000
,  // measure 35
0023
0000
0230
0000
,  // measure 36
0320
0000
0230
0000
,  // measure 37
2300
0000
3002
0000
,  // measure 38
2003
0000
3002
0000
,  // measure 39
0203
0000
0320
0000
,  // measure 40
2030
0000
3001
0000
,  // measure 41
1000
0000
0001
1000
,  // measure 42
0001
0000
0100
0010
,  // measure 43
1000
0000
0001
0000
,  // measure 44
0001
0000
0001
0000
,  // measure 45
1000
0000
0100
0010
,  // measure 46
0001
0000
1000
0010
,  // measure 47
0100
0001
0000
0000
,  // measure 48
0001
0000
0001
0000
,  // measure 49
1000
0000
0100
0010
,  // measure 50
0001
0000
1000
0010
,  // measure 51
0100
0001
0000
0000
,  // measure 52
1000
0000
1000
0000
,  // measure 53
0001
0000
1000
0100
,  // measure 54
0001
0000
0100
0010
,  // measure 55
0001
0100
0000
0000
,  // measure 56
0010
0000
0010
0000
,  // measure 57
0010
0000
0000
0000
;
