#TITLE:THE MUSIC IS MOVIN';
#SUBTITLE:;
#ARTIST:FARGETTA;
#TITLETRANSLIT:;
#SUBTITLETRANSLIT:;
#ARTISTTRANSLIT:;
#CREDIT:;
#BANNER:THE MUSIC IS MOVIN'.png;
#BACKGROUND:THE MUSIC IS MOVIN'-bg.png;
#LYRICSPATH:;
#CDTITLE:DISCOTECH FOURTEEN.png;
#MUSIC:THE MUSIC IS MOVIN'.mp3;
#OFFSET:-3.767;
#SAMPLESTART:55.391;
#SAMPLELENGTH:12.000;
#SELECTABLE:YES;
#DISPLAYBPM:130.000;
#BPMS:0.000=129.986;
#STOPS:;
#BGCHANGES:;

//---------------dance-single - ----------------
#NOTES:
     dance-single:
     :
     Beginner:
     1:
     0.137,0.198,0.080,0.000,0.000:
0000
0000
0000
0000
,
0000
0000
0000
0000
,
0000
0000
0000
0000
,
0000
0000
0000
0000
,
1000
0000
1000
0000
,
0001
0000
0001
0000
,
1000
0000
1000
0000
,
0010
0000
0000
0000
,
0100
0000
0100
0000
,
0010
0000
0010
0000
,
0100
0000
0100
0000
,
0001
0000
0000
0000
,
1000
0000
0100
0000
,
1000
0000
0100
0000
,
1000
0000
0100
0000
,
1000
0000
0000
0000
,
0001
0000
0010
0000
,
0001
0000
0010
0000
,
0001
0000
0010
0000
,
0001
0000
0000
0000
,
1000
1000
1000
0000
,
1000
0000
0000
0000
,
0001
0001
0001
0000
,
0001
0000
0000
0000
,
0010
0010
0010
0000
,
0010
0000
0000
0000
,
0100
0100
0100
0000
,
0100
0000
0000
0000
,
1001
0000
0000
0000
,
0110
0000
0000
0000
,
1001
0000
0000
0000
,
0110
0000
0000
0000
,
1000
1000
1000
0000
,
0001
0001
0001
0000
,
1000
1000
1000
0000
,
0001
0000
0000
0000
,
0010
0010
0010
0000
,
0100
0100
0100
0000
,
0010
0010
0010
0000
,
0100
0000
0000
0000
,
1000
0000
0001
0000
,
1000
0000
0001
0000
,
1000
0000
0001
0000
,
1001
1001
1001
0000
;

//---------------dance-single - ----------------
#NOTES:
     dance-single:
     :
     Easy:
     3:
     0.234,0.224,0.000,0.000,0.000:
0000
0000
0000
0000
,
0000
0000
0000
0000
,
0000
0000
0000
0000
,
0000
0000
0000
0000
,
1000
1000
0100
0100
,
1000
1000
0010
0010
,
1000
1000
0100
0100
,
1000
0001
1000
0000
,
0001
0001
0010
0010
,
0001
0001
0100
0100
,
0001
0001
0010
0010
,
0001
1000
0001
0000
,
1000
0100
0010
0000
,
0001
0100
0010
0000
,
1000
0100
0010
0000
,
0001
0010
0100
1000
,
0010
1000
0100
0000
,
0010
0001
0100
0000
,
0010
1000
0100
0000
,
1000
0010
0100
0001
,
1000
1000
0001
0001
,
1000
1000
0001
0001
,
1000
1000
0001
0001
,
1000
1000
0001
0001
,
0010
0010
0100
0100
,
0010
0010
0100
0100
,
0010
0010
0100
0100
,
0010
0010
0100
0000
,
1000
0010
1000
0001
,
1000
0010
1000
0001
,
1000
0010
1000
0001
,
1000
0000
0001
0000
,
0001
0010
0001
1000
,
0001
0010
0001
1000
,
0001
0010
0001
1000
,
0001
0000
1000
0000
,
1000
0100
0010
0001
,
0001
0100
0010
1000
,
1000
0100
0010
0001
,
1000
0000
0001
0000
,
1000
0010
0100
0001
,
0001
0010
0100
1000
,
1000
0010
0100
0000
,
0001
0100
0001
1000
;

//---------------dance-single - ----------------
#NOTES:
     dance-single:
     :
     Medium:
     7:
     0.373,0.400,0.148,0.000,0.040:
0000
0000
0000
0000
,
0000
0000
0000
0000
,
0000
0000
0000
0000
,
0000
0000
0000
0000
,
1000
0100
1000
0000
0010
0000
0100
0000
,
0001
0010
0001
0000
0010
0000
0100
0000
,
1000
0010
1000
0000
0001
0000
0100
0000
,
0001
0010
0001
0000
1000
0100
1000
0000
,
0010
1000
0010
0000
0100
0000
0001
0000
,
0010
0001
0010
0000
0100
0000
1000
0000
,
0010
1000
0010
0000
0100
0000
0001
0000
,
0010
0001
0010
0000
0100
1000
0100
0000
,
1000
0010
0100
0000
0010
0100
0001
0000
,
0001
0010
0100
0000
0010
0100
1000
0000
,
1000
0010
0100
0000
0010
0100
0001
0000
,
1000
0100
1000
0000
0001
0000
0000
0000
,
0010
1000
0100
0000
0010
0001
0100
0000
,
0100
0001
0010
0000
0100
1000
0010
0000
,
0010
1000
0100
0000
0010
0001
0100
0000
,
0001
1000
1001
0000
,
1000
0000
0000
0000
1000
0000
0000
0000
0001
0000
0000
0001
0000
0000
0001
0000
,
0010
0000
0000
0000
0010
0000
0000
0000
0100
0000
0000
0100
0000
0000
0100
0000
,
1000
0000
0000
0000
1000
0000
0000
0000
0010
0000
0000
0010
0000
0000
0010
0000
,
0100
0000
0000
0000
0100
0000
0000
0000
0001
0000
0000
0010
0000
0000
0010
0000
,
0100
0000
1000
0000
0000
1000
0000
0000
1000
0000
0000
0000
0010
0000
0000
0000
,
0100
0000
0001
0000
0000
0001
0000
0000
0001
0000
0000
0000
0010
0000
0000
0000
,
0100
0000
1000
0000
0000
1000
0000
0000
1000
0000
0000
0000
0001
0000
0000
0000
,
0100
0000
0000
0000
0001
1000
0001
0000
,
1000
0100
1000
0100
0010
0001
0010
0000
,
0001
0100
0001
0100
0010
1000
0010
0000
,
1000
0100
1000
0100
0010
0001
0010
0000
,
0001
0010
0100
1000
,
0001
0100
0001
0100
0010
1000
0010
0000
,
1000
0100
1000
0100
0010
0001
0010
0000
,
0001
0100
0001
0100
0010
1000
0010
0000
,
1000
0001
0010
0100
,
1010
0000
0011
0000
0100
1000
0010
0000
,
1010
0000
1100
0000
0010
0001
0100
0000
,
0101
0000
1100
0000
0010
1000
0001
0000
,
0010
0001
0100
0000
0010
0000
0000
0000
,
1100
0000
0101
0000
0010
1000
0100
0000
,
0011
0000
1010
0000
0100
0001
0010
0000
,
0011
0000
0101
0000
0010
1000
0100
0000
,
1000
0010
0100
0001
1000
0010
0100
0001
;

//---------------dance-single - ----------------
#NOTES:
     dance-single:
     :
     Hard:
     8:
     0.496,0.500,0.364,0.000,0.285:
0000
0000
0000
0000
,
0000
0000
0000
0000
,
0000
0000
0000
0000
,
0000
0000
0000
0000
,
1000
0000
0010
0000
0100
0000
0001
1000
0000
0001
1000
0000
0010
0000
0100
0000
,
0001
0000
0010
0000
0100
0000
1000
0001
0000
1000
0001
0000
0010
0000
0100
0000
,
1000
0000
0010
0000
0100
0000
0001
1000
0000
0001
1000
0000
0010
0000
0100
0000
,
0001
0010
0001
0000
1000
0100
1000
0000
,
0100
0000
1000
0000
0010
0000
0100
0001
0000
0001
0010
0000
0100
0000
1000
0000
,
0010
0000
1000
0000
0100
0000
0010
0001
0000
0001
0100
0000
0010
0000
1000
0000
,
0100
0000
1000
0000
0010
0000
0100
0001
0000
0001
0010
0000
0100
0000
1000
0000
,
0010
1000
0010
0000
0100
0001
0100
0000
,
1010
0000
0011
0000
0100
1000
0001
0000
,
0101
0000
1100
0000
0010
1000
0001
0000
,
0011
0000
1010
0000
0100
0001
1000
0000
,
0100
1000
0100
1000
0100
0000
0000
0000
1001
0000
0000
0000
0000
0000
0000
0000
,
1100
0000
1010
0000
0100
0001
0010
0000
,
0011
0000
0101
0000
0010
1000
0100
0000
,
1100
0000
1010
0000
0100
0001
0010
0000
,
0001
0010
0001
0010
0001
0000
0000
0000
1001
0000
0000
0000
0000
0000
0000
0000
,
1000
0100
0010
0001
,
0001
0100
0010
1000
,
1000
0010
0100
0001
,
0010
0001
1000
0100
,
0010
0001
0100
0001
0010
0000
1001
0000
,
0100
1000
0010
1000
0100
0000
1001
0000
,
0010
0001
0100
0001
0010
0000
1001
0000
,
1000
0010
0100
0001
0100
0010
1000
0000
,
1000
0000
0010
0000
0100
0000
0001
1000
0000
0001
1000
0000
0100
0000
0010
0000
,
0001
0000
0100
0000
0010
0000
1000
0001
0000
1000
0001
0000
0010
0000
0100
0000
,
1000
0000
0010
0000
0100
0000
0001
1000
0000
0001
1000
0000
0100
0000
0010
0000
,
0001
0100
0001
0100
0001
0000
0000
0000
0101
0000
0000
0000
1100
0000
0000
0000
,
0100
0000
1000
0000
0010
0000
0100
0001
0000
0001
0010
0000
0100
0000
0000
0000
,
0010
0000
0001
0000
0100
0000
0010
1000
0000
1000
0100
0000
0010
0000
0000
0000
,
0100
0000
1000
0000
0010
0000
0100
0001
0000
0001
0010
0000
0100
0000
0000
0000
,
1000
0100
1000
0100
1000
0000
0000
0000
0001
0000
0100
0000
0001
0000
0000
0000
,
0011
0000
0000
0000
1010
0000
0000
0000
0100
0001
0100
0001
0100
0000
0000
0000
,
0101
0000
0000
0000
1100
0000
0000
0000
0010
0001
0010
0001
0010
0000
0000
0000
,
1010
0000
0000
0000
0011
0000
0000
0000
0100
1000
0100
1000
0100
0000
0000
0000
,
1000
0010
1000
0010
1000
0000
0000
0000
1001
0000
0000
0000
0000
0000
0000
0000
,
0011
0000
0000
0000
0101
0000
0000
0000
0010
1000
0100
1000
0010
0000
0000
0000
,
1010
0000
0000
0000
1100
0000
0000
0000
0010
0001
0100
0001
0010
0000
0000
0000
,
0011
0000
0000
0000
0101
0000
0000
0000
0010
1000
0100
1000
0010
0000
0000
0000
,
1000
0001
1000
0001
1000
0000
0000
0000
1000
0010
0000
0010
0100
0000
0001
0000
;
