#TITLE:THE MUSIC IS MOVIN';
#SUBTITLE:(Delaction Remix);
#ARTIST:FARGETTA;
#TITLETRANSLIT:;
#SUBTITLETRANSLIT:;
#ARTISTTRANSLIT:;
#CREDIT:;
#BANNER:THE MUSIC IS MOVIN' (Delaction Remix).png;
#BACKGROUND:THE MUSIC IS MOVIN' (Delaction Remix)-bg.png;
#LYRICSPATH:;
#CDTITLE:SUPER BEST TRANCE V.png;
#MUSIC:THE MUSIC IS MOVIN' (Delaction Remix).mp3;
#OFFSET:-0.028;
#SAMPLESTART:59.572;
#SAMPLELENGTH:13.000;
#SELECTABLE:YES;
#DISPLAYBPM:145.000;
#BPMS:0.000=145.000;
#STOPS:64.000=2.897
;
#BGCHANGES:;

//---------------dance-single - ----------------
#NOTES:
     dance-single:
     :
     Hard:
     8:
     0.427,0.693,0.298,0.055,0.463:
0000
0000
0000
0000
,
0000
0000
0000
0000
,
0000
0000
0000
0000
,
0000
0000
0000
0000
,
0000
0000
0000
0000
,
0000
0000
0000
0000
,
0000
0000
0000
0000
,
0000
0000
0000
0000
,
1000
0000
0010
0000
0000
0100
0000
0000
0001
0000
0000
1000
0000
0000
0010
0000
,
0100
0000
0001
0000
0000
1000
0000
0000
0010
0000
0000
0100
0000
0000
0001
0000
,
0010
0100
0000
1000
0000
0000
0001
0000
0010
0100
0000
1000
0000
0000
0001
0000
,
0010
0100
0000
1000
0000
0000
0001
0000
0010
0100
0000
1000
0000
0000
0001
0000
,
1000
0100
1000
0001
0100
0001
1000
0010
1000
0001
0010
0001
,
1000
0100
1000
0001
0100
0001
1000
0010
1000
0001
0010
0001
,
0010
0001
0010
0001
0010
0001
0010
0001
0010
0001
0010
0001
0010
0001
0010
0001
,
2000
0000
0000
0000
,
0000
3000
0000
0000
0000
0000
0000
0000
0000
0000
0000
0000
0000
0000
0000
0000
0001
0000
0000
0000
0000
0000
0000
0000
0000
0000
0000
0000
0001
0000
0000
0000
0010
0000
0000
0000
0000
0000
0000
0000
0000
0000
0000
0000
0001
0000
0000
0000
1000
0000
0000
0000
0000
0000
0000
0000
0000
0000
0000
0000
0001
0000
0000
0000
,
0100
0000
0000
0001
1000
0000
0000
0001
0010
0000
0000
0001
1000
0000
0010
0000
,
0010
0000
0010
0000
1000
0000
0000
1000
0010
0000
0000
1000
0001
0000
0000
1000
,
0100
0000
0000
1000
0001
0000
0000
1000
0010
0000
0000
1000
0100
0000
0010
0000
,
0010
0000
0010
0000
0100
0000
0000
0100
1000
0000
0000
0100
0010
0000
0000
0100
,
0001
0000
0000
0100
0010
0000
0000
0100
1000
0000
0000
0100
0010
0000
0001
0000
,
0001
0000
0001
0000
0010
0000
0000
0010
0100
0000
0000
0010
0001
0000
0000
0010
,
0100
0000
0000
0010
1000
0000
0000
0010
0100
0000
0000
0010
0001
0000
0100
0000
,
0100
0000
0100
0000
0010
0000
0100
0000
0000
0001
0000
0000
1000
0000
0000
0100
,
0000
1000
0010
0100
0000
0001
0000
0010
,
0100
0000
0000
0000
1000
0000
0010
0000
0000
0100
0000
0000
0001
0000
0000
1000
,
0000
0000
0100
0000
1000
0000
0010
0000
0000
0100
0000
0000
0002
0000
0000
0000
,
1003
0000
0000
0000
0010
0000
1000
0000
0000
0100
0000
0000
1000
0000
0000
0010
,
0000
0100
0001
0010
0000
0001
0000
1000
,
0010
0000
0000
0000
0100
0000
0001
0000
0000
0010
0000
0000
0001
0000
0000
0100
,
0000
0000
0010
0000
1000
0000
0100
0000
0000
1000
0000
0000
0002
0000
0000
0000
,
1003
0120
0000
0000
,
0000
2000
0000
3030
,
1001
0000
0101
0000
0000
0000
0000
0001
,
0000
0010
0000
0000
1100
0000
0000
0000
0000
0000
0000
0000
0000
0000
1000
0000
,
0000
0010
0000
0000
1001
0000
0000
0000
0000
0000
0000
0000
0000
0000
0010
0000
,
0000
0100
0000
0000
1100
0000
0000
0000
0000
0000
1001
0000
0000
0000
0100
0000
,
0001
0010
0110
0000
0000
0000
0000
0010
,
0000
0001
0000
0000
1100
0000
0000
0000
0000
0000
0000
0000
0000
0000
0010
0000
,
0000
1000
0000
0000
0110
0000
0000
0000
0000
0000
0000
0000
0000
0000
0100
0000
,
0000
0001
0000
0000
1010
0000
0000
0100
0000
0000
0001
0000
0000
0000
0100
0000
,
0001
0010
0110
0000
0000
0000
0000
0100
,
0000
1000
0000
0000
0110
0000
0000
0000
0000
0000
0000
0000
0000
0000
0100
0000
,
0000
0001
0000
0000
1010
0000
0000
0000
0000
0000
0000
0000
0000
0000
0100
0000
,
0000
0001
0000
0000
0011
0000
0000
0000
0000
0000
1010
0000
0000
0000
0100
0000
,
0001
0010
1001
0000
0000
0000
0000
1010
,
0000
0101
0000
0000
1001
0000
0000
0000
0000
0000
0000
0000
0000
0000
0011
0000
,
0000
1100
0000
0000
0110
0000
0000
0000
0000
0000
0000
0000
0000
0000
0110
0000
,
0000
1001
0000
0000
0011
0000
0000
0001
0000
0000
0100
0000
0000
0000
0010
0000
,
1000
0100
1001
0000
0000
0000
0000
0000
;

//---------------dance-single - ----------------
#NOTES:
     dance-single:
     :
     Medium:
     5:
     0.296,0.360,0.287,0.011,0.000:
0000
0000
0000
0000
,
0000
0000
0000
0000
,
0000
0000
0000
0000
,
0000
0000
0000
0000
,
0000
0000
0000
0000
,
0000
0000
0000
0000
,
0000
0000
0000
0000
,
0000
0000
0000
0000
,
1001
0000
0000
0000
,
1001
0000
0000
0000
,
0110
0000
0110
0000
,
0110
0000
0110
0000
,
0001
0001
0001
0001
,
0001
0001
0001
0001
,
1000
1000
1000
1000
1000
1000
1000
1000
,
2000
0000
0000
0000
,
0000
3000
0000
0000
0000
0000
0000
0000
0000
0000
0000
0000
0000
0000
0000
0000
0001
0000
0000
0000
0000
0000
0000
0000
0000
0000
0000
0000
0000
0000
0000
0000
0011
0000
0000
0000
0000
0000
0000
0000
0000
0000
0000
0000
0000
0000
0000
0000
0001
0000
0000
0000
0000
0000
0000
0000
0000
0000
0000
0000
0000
0000
0000
0000
,
0011
0000
0001
0000
0011
0000
0001
0001
,
0001
1000
1010
1000
,
1010
0000
1000
0000
1010
0000
1000
1000
,
1000
0010
0110
0010
,
0110
0000
0010
0000
0110
0000
0010
0010
,
0010
0100
0101
0100
,
0101
0000
0100
0000
0101
0000
0100
0100
,
0100
0001
0010
0001
,
1000
0000
0100
1000
0000
0100
0000
1000
,
0100
1000
0010
1000
,
0001
0000
0100
0001
0000
0100
0001
0000
,
0100
0001
0010
0001
,
1000
0000
0010
1000
0000
0010
0000
1000
,
0010
0100
0001
0100
,
0010
0000
1000
0100
1000
0100
1000
0000
,
0100
1100
0000
0000
,
0000
0010
0000
0000
,
0001
0010
0001
0000
0100
0000
0010
0000
,
1000
0001
0100
0000
0001
0000
0010
0000
,
0100
1000
0100
0000
0010
0000
0001
0000
,
0100
0010
0000
0010
,
0000
1000
0100
1000
,
0010
0100
0001
0000
0010
0000
0001
0000
,
1000
0100
1000
0010
,
0100
0001
0100
0000
0000
0000
0100
0000
,
0000
0001
0010
0001
,
1000
0100
1000
0000
0010
0000
0100
0000
,
0001
1000
0001
0010
,
0100
1000
0100
0000
0000
0000
0100
0000
,
0000
1001
0000
0000
,
1001
0101
0000
0000
,
0101
0110
0000
0000
,
0110
0000
1000
0001
1000
0000
0001
1000
,
0001
0110
0000
0000
;

//---------------dance-single - ----------------
#NOTES:
     dance-single:
     :
     Easy:
     3:
     0.225,0.499,0.176,0.066,0.000:
0000
0000
0000
0000
,
0000
0000
0000
0000
,
0000
0000
0000
0000
,
0000
0000
0000
0000
,
0000
0000
0000
0000
,
0000
0000
0000
0000
,
0000
0000
0000
0000
,
0000
0000
0000
0000
,
1001
0000
0000
0000
,
1001
0000
0000
0000
,
1001
0000
1001
0000
,
1001
0000
1001
0000
,
1001
1001
1001
1001
,
1001
1001
1001
1001
,
2002
0000
0000
0000
,
0000
0000
0000
0000
,
0000
3003
0000
0000
0000
0000
0000
0000
0000
0000
0000
0000
0000
0000
0000
0000
0001
0000
0000
0000
0000
0000
0000
0000
0000
0000
0000
0000
0000
0000
0000
0000
0010
0000
0000
0000
0000
0000
0000
0000
0000
0000
0000
0000
0000
0000
0000
0000
0001
0000
0000
0000
0000
0000
0000
0000
0000
0000
0000
0000
0000
0000
0000
0000
,
0010
0001
0010
0001
,
0000
1000
0010
1000
,
0010
1000
0010
1000
,
0000
0001
0100
0001
,
0100
0001
0100
0001
,
0000
1000
0100
1000
,
0100
1000
0100
1000
,
0000
0010
0100
0010
,
1000
0001
0010
0100
,
1000
0001
0001
0001
,
0001
2000
3000
2000
,
3000
0001
0001
0010
,
1000
0010
0001
0100
,
0010
1000
1000
1000
,
1000
0002
0003
0002
,
0003
1000
0000
0000
,
0000
0100
0000
0000
,
0000
1000
0010
1000
,
0001
0001
0001
0010
,
0001
1000
1000
0010
,
1000
0001
0000
0100
,
0000
0010
1000
0001
,
0001
0010
0100
1000
,
1000
1000
0100
0001
,
0100
1000
0000
1000
,
0000
0010
0100
0001
,
0100
0010
0010
0010
,
1000
0001
0010
0100
,
0100
1000
0000
0001
,
0000
0100
0000
0000
,
0000
0100
0000
0000
,
0000
0100
0000
0000
,
0000
0100
0000
0100
,
0000
1001
0000
0000
;

//---------------dance-single - ----------------
#NOTES:
     dance-single:
     :
     Beginner:
     1:
     0.071,0.139,0.022,0.011,0.000: // measure 1
0000
0000
0000
0000
,  // measure 2
0000
0000
0000
0000
,  // measure 3
0000
0000
0000
0000
,  // measure 4
0000
0000
0000
0000
,  // measure 5
0000
0000
0000
0000
,  // measure 6
0000
0000
0000
0000
,  // measure 7
0000
0000
0000
0000
,  // measure 8
0000
0000
0000
0000
,  // measure 9
1000
0000
0000
0000
,  // measure 10
0001
0000
0000
0000
,  // measure 11
0010
0000
0010
0000
,  // measure 12
0010
0000
0010
0000
,  // measure 13
0020
0000
0000
0000
,  // measure 14
0000
0000
0000
0000
,  // measure 15
0000
0000
0000
0000
,  // measure 16
0000
0000
0000
0000
,  // measure 17
0030
0000
1000
0000
,  // measure 18
0000
0000
0000
0000
,  // measure 19
1000
1000
0000
0000
,  // measure 20
0000
0000
0000
0000
,  // measure 21
0000
0001
0000
0000
,  // measure 22
0000
0000
0000
0000
,  // measure 23
0000
0010
0000
0000
,  // measure 24
0000
0000
0000
0000
,  // measure 25
0000
0100
0000
0100
,  // measure 26
0000
0100
0000
0000
,  // measure 27
0000
1000
0000
0000
,  // measure 28
0000
0000
0000
0000
,  // measure 29
0000
0010
0000
0010
,  // measure 30
0000
0010
0000
0000
,  // measure 31
0000
0100
0000
0000
,  // measure 32
0000
0100
0000
0000
,  // measure 33
0000
1001
0000
0000
,  // measure 34
0000
0000
0000
0000
,  // measure 35
0000
0010
0000
0000
,  // measure 36
0000
1000
0000
0000
,  // measure 37
0000
0001
0000
0000
,  // measure 38
0000
0100
0000
0100
,  // measure 39
0000
0100
0000
0000
,  // measure 40
0000
0010
0000
0000
,  // measure 41
0000
1000
0000
0000
,  // measure 42
0000
0001
0000
0001
,  // measure 43
0000
0010
0000
0000
,  // measure 44
0000
0100
0000
0000
,  // measure 45
0000
0010
0000
0000
,  // measure 46
0000
0001
0000
0001
,  // measure 47
0000
1000
0000
0000
,  // measure 48
0000
1000
0000
0000
,  // measure 49
0000
1000
0000
0000
,  // measure 50
0000
1000
0000
0000
,  // measure 51
0000
1001
0000
0000
;
