#TITLE:THE HEAT IS ON;
#SUBTITLE:;
#ARTIST:FROG'A BILLY;
#TITLETRANSLIT:;
#SUBTITLETRANSLIT:;
#ARTISTTRANSLIT:;
#CREDIT:;
#BANNER:THE HEAT IS ON.png;
#BACKGROUND:THE HEAT IS ON-bg.png;
#LYRICSPATH:;
#CDTITLE:Speed DEKA.png;
#MUSIC:THE HEAT IS ON - FROG'A BILLY.mp3;
#OFFSET:-5.800;
#SAMPLESTART:46.842;
#SAMPLELENGTH:12.000;
#SELECTABLE:YES;
#BPMS:0.000=169.000;
#STOPS:;
#BGCHANGES:;

//---------------dance-single - ----------------
#NOTES:
     dance-single:
     :
     Hard:
     9:
     0.555,0.475,0.159,0.000,0.113:
0000
0010
0100
1000
0010
0100
0000
0001
,
0100
1000
0100
0010
0000
0000
0000
0000
,
0000
1000
0001
0010
0100
1000
0000
0000
,
0000
0001
0100
0010
0000
1000
0100
0010
,
0000
0001
0100
0010
1000
0100
0000
0010
,
0001
0100
1000
0100
0000
0000
0110
0001
,
0000
1000
0100
0010
0001
0100
0000
0000
,
0000
0010
1000
0010
0000
1000
0100
1000
,
0001
0000
0000
0000
0001
0000
0000
0000
0100
0010
0000
0000
0010
0100
0000
0000
,
0001
0100
0010
0100
0001
0000
1000
0000
,
1000
0000
0100
0000
0010
0000
0100
0000
1000
0010
0000
0000
0010
1000
0000
0000
,
0001
0100
0010
1000
0100
0000
0100
0000
,
1000
0000
0001
0000
0010
0000
0100
0000
1000
0010
0000
0000
0010
0100
0000
0000
,
0001
1000
0100
0010
0001
0000
0100
0000
,
0100
0010
1000
0010
0100
0000
0100
0000
,
0001
0010
0100
0010
0001
0000
1000
0100
,
0000
0100
1000
0001
0100
0000
0001
0000
,
1001
0000
1000
0000
0001
0100
0010
1000
,
0100
0000
0000
0000
1000
0000
0000
0000
0001
0100
0000
0000
0100
0010
0000
0000
,
0010
1000
0000
0000
0100
0000
0000
0000
1000
0000
0100
0000
1000
0000
0001
0000
,
0010
0000
0000
0000
0001
0000
0000
0000
1000
0100
0000
0000
0100
0010
0000
0000
,
0010
0001
0000
0000
0100
0000
0000
0000
0010
0000
1000
0000
0010
0000
1000
0000
,
0100
0000
0000
0000
1000
0000
0000
0000
0001
0010
0000
0000
0010
0100
0000
0000
,
0100
0010
0000
0000
0001
0000
0000
0000
1000
0000
0000
0000
0001
0000
0100
0000
,
0000
0100
0010
1000
0001
0000
1000
0000
,
1001
0010
0100
0001
1000
0100
0000
0010
,
0001
0100
1000
0100
0000
0000
1010
0100
,
0000
0001
0010
0100
1000
0010
0000
0000
,
0000
0001
0100
0010
0000
1000
0100
0010
,
0001
0100
1000
0100
0001
1000
0000
0000
,
1000
0100
0001
0100
1000
0001
0000
0000
,
1000
0101
1010
0000
,
0001
0000
0000
0000
1010
0000
0000
0000
0101
0000
0000
1000
0001
0000
0001
0000
,
1000
0010
0001
0010
1000
0001
0000
0000
,
0001
0100
1000
0100
0001
1000
0000
0000
,
0001
0001
0100
0010
1000
0100
0000
0010
,
0010
0001
0100
1000
0100
0010
1000
0001
,
0010
0000
0000
0000
0110
0000
0001
1000
,
0001
0000
0000
0000
0101
0000
0000
0000
1000
0010
0000
0000
0010
0100
0000
0000
,
0001
0000
0001
0000
1000
0100
1000
0001
,
0010
0000
0001
0000
1000
0010
0100
0001
,
0000
0101
0000
1000
0100
1000
0010
0000
,
0100
0000
0000
0000
0001
0000
0000
0000
1000
0100
0000
0000
0100
1000
0000
0000
,
0001
0010
1000
0010
0001
0000
0100
0000
,
0010
0000
1000
0100
1000
0000
0001
0010
,
0100
0000
0010
0000
0001
0000
1000
0010
,
0000
0010
0100
0001
0010
0000
0001
0000
,
1001
1000
0001
1000
,
0100
0010
0001
0100
1000
0100
0000
0010
,
1000
0100
0001
0100
0000
0000
1010
0001
,
0000
0100
1000
0100
0010
1000
0000
0000
,
0000
0001
0100
1000
0000
0100
0010
1000
,
0000
0100
0010
0001
0100
1000
0000
0100
,
0001
0010
0100
1000
0000
0000
0101
0010
,
0000
1000
0100
0001
0100
1000
0000
0000
,
0000
0100
1000
0010
0000
1000
0100
0001
;

//---------------dance-single - ----------------
#NOTES:
     dance-single:
     :
     Easy:
     3:
     0.228,0.221,0.023,0.000,0.000:
1000
0100
1000
0000
,
0001
0010
0100
0000
,
0000
0001
0100
0000
,
0000
0010
0000
0100
,
0000
0001
1000
0000
,
0100
1000
0010
0000
,
0000
0100
0001
0000
,
0000
1000
0100
1000
,
0001
0000
0000
0000
,
1000
1000
1000
0000
,
0001
0001
0001
0000
,
0100
0100
0100
0000
,
0010
0010
0010
0000
,
1000
1000
1000
0000
,
0100
0100
0100
0000
,
1000
1000
1000
0000
,
0001
0000
0000
0000
,
1000
0000
0100
1000
,
0100
0000
0001
0000
,
0010
0000
0001
0100
,
0001
0000
0010
0000
,
0100
1000
0100
0000
,
0010
0000
0100
0001
,
0100
0000
0010
0000
,
1000
0000
0000
0000
,
0000
1000
0100
0000
,
1000
0100
1000
0000
,
0000
0001
0100
0000
,
0000
0010
0000
0100
,
0001
0001
0001
0000
,
1000
1000
1000
0000
,
1000
0000
1001
0000
,
0001
0000
1001
0000
,
0100
0100
0100
0000
,
0010
0010
0010
0000
,
1000
0000
0100
0000
,
1000
0000
0001
0000
,
0010
0000
0001
0000
,
0100
0100
0000
0000
,
0010
1000
0100
0000
,
0100
0000
0100
1000
,
0001
0000
0001
0000
,
0100
0000
0010
0010
,
0010
0000
1000
0000
,
0100
0000
1000
0001
,
1000
0000
0010
0000
,
0100
0000
0001
1000
,
0001
0000
1000
0000
,
0001
1000
0100
0000
,
0100
1000
0010
0000
,
0000
0100
0001
0000
,
0000
0001
1000
0000
,
0100
0100
1000
0000
,
0010
0100
0001
0000
,
0000
0010
0100
0000
,
0000
1000
0001
1000
;

//---------------dance-single - Copied from ----------------
#NOTES:
     dance-single:
     Copied from:
     Medium:
     7:
     0.494,0.475,0.295,0.000,0.000: // measure 1
0000
1000
0100
1000
0100
1000
0000
0000
,  // measure 2
1000
1001
0001
0100
,  // measure 3
0000
1000
0001
1000
0010
0100
0000
0000
,  // measure 4
0000
0001
0010
0001
0000
1000
0100
1000
,  // measure 5
0000
0001
0100
0001
0100
0001
0000
0000
,  // measure 6
1000
0000
1010
0000
0001
0000
0100
0001
,  // measure 7
0000
1000
0001
1000
0001
1000
0000
0000
,  // measure 8
0000
0001
0100
0001
0000
1000
0100
1000
,  // measure 9
0001
0001
1000
1001
,  // measure 10
1000
0100
1000
0000
0001
0000
0001
0000
,  // measure 11
0010
0100
0010
0000
0001
0000
1000
0000
,  // measure 12
1001
0000
1000
0100
1000
0000
0010
0000
,  // measure 13
0100
0001
0100
0000
1000
0000
1001
0000
,  // measure 14
1000
0100
1000
0000
0001
0000
0001
0000
,  // measure 15
0010
0100
0010
0000
0001
0000
1000
0000
,  // measure 16
1000
0100
1000
0000
0001
0000
1000
0000
,  // measure 17
1001
0000
0010
0100
,  // measure 18
0001
0001
0001
0000
0100
0000
0010
0000
,  // measure 19
1000
1000
1000
0000
0010
0000
0100
0000
,  // measure 20
0001
0001
0001
0000
1000
0000
0100
0000
,  // measure 21
0010
0010
0010
0000
0100
0000
1000
0000
,  // measure 22
0001
0001
0001
0000
0010
0000
0100
0000
,  // measure 23
0001
0001
0001
0000
1000
0000
0100
0000
,  // measure 24
1000
1000
1000
0000
0010
0000
0100
0000
,  // measure 25
0001
0000
1000
0100
1000
0000
0001
0000
,  // measure 26
1001
0000
1000
0100
1000
0001
0000
0001
,  // measure 27
0100
0010
0100
0001
0000
0000
1000
0100
,  // measure 28
0000
0000
0100
1000
0010
1000
0000
0000
,  // measure 29
0000
0001
0010
0001
0000
1000
0100
0000
,  // measure 30
1001
0000
0001
0100
0000
0101
0000
0000
,  // measure 31
1010
0000
1000
0100
0000
1001
0000
0000
,  // measure 32
1000
0001
1000
0000
0101
0000
0101
0000
,  // measure 33
1000
0100
1000
0000
1010
0000
1010
0000
,  // measure 34
0101
0000
0001
0100
0000
0101
0000
0000
,  // measure 35
1010
0000
1000
0100
0000
1100
0000
0000
,  // measure 36
0001
0000
1000
0000
1000
0010
0100
0000
,  // measure 37
0001
0000
0100
0000
0010
0100
1000
0001
,  // measure 38
0000
0000
0001
0000
0100
0000
0000
0001
,  // measure 39
0100
0001
0101
1000
,  // measure 40
1000
0100
1000
0000
0001
0100
0001
0000
,  // measure 41
1000
0100
0010
0100
,  // measure 42
1001
0000
1001
0000
1000
0100
1000
0000
,  // measure 43
0001
0100
0001
0000
0010
0000
0100
0000
,  // measure 44
0110
0000
1000
0000
0100
0010
0001
0000
,  // measure 45
0001
0100
1000
0000
0100
0000
0001
0010
,  // measure 46
0001
1000
1010
0001
,  // measure 47
0101
0000
1000
0100
0010
0000
0100
0000
,  // measure 48
1001
0001
1000
1000
,  // measure 49
0001
0100
0010
0100
0001
1000
0000
1000
,  // measure 50
0100
0010
0001
0100
0000
0000
0001
0100
,  // measure 51
0000
0001
0100
0001
0100
0010
0000
0000
,  // measure 52
0000
1000
0100
0010
0000
0001
0100
0010
,  // measure 53
0000
1000
0100
1000
0010
1000
0000
0001
,  // measure 54
0100
0001
0100
0001
0000
0000
1000
0100
,  // measure 55
0000
1000
0001
1000
0001
1000
0000
0000
,  // measure 56
0000
0001
0010
0100
0000
1000
0100
0010
;
