#TITLE:THE HAND THAT FEEDS;
#SUBTITLE:;
#ARTIST:nine inch nails;
#TITLETRANSLIT:;
#SUBTITLETRANSLIT:;
#ARTISTTRANSLIT:;
#CREDIT:;
#BANNER:THE HAND THAT FEEDS.png;
#BACKGROUND:THE HAND THAT FEEDS-bg.png;
#LYRICSPATH:;
#CDTITLE:With Teeth.png;
#MUSIC:THE HAND THAT FEEDS.mp3;
#OFFSET:-3.773;
#SAMPLESTART:21.760;
#SAMPLELENGTH:12.000;
#SELECTABLE:YES;
#BPMS:0.000=128.038;
#STOPS:;
#BGCHANGES:0.000=THE HAND THAT FEEDS.avi=1.000=1=0=0,
211.000=THE HAND THAT FEEDS-bg.png=1.000=1=0=0,
99999=-nosongbg-=1.000=0=0=0 // don't automatically add -songbackground-
;

//---------------dance-single - Beginner----------------
#NOTES:
     dance-single:
     Beginner:
     Beginner:
     1:
     0.184,0.252,0.191,0.000,0.000:
0000
0000
0001
0001
,
1000
0000
0000
0000
,
1000
0000
0000
0000
,
0010
0010
0010
0000
,
0100
0100
0100
0000
,
1000
0000
0000
0000
,
0001
0000
0000
0000
,
0001
0000
1000
0000
,
0001
0001
1000
1000
,
1001
0000
0000
0000
,
0010
0010
0010
0000
,
1001
0000
0000
0000
,
0100
0100
0100
0000
,
1001
0000
0000
0000
,
0001
0001
0001
0000
,
0110
0000
0000
0000
,
1000
1000
1000
0000
,
0110
0000
0000
0000
,
0001
0001
0001
0000
,
1001
0000
0000
0000
,
1000
1000
1000
0000
,
1001
0000
1001
0000
,
1001
0000
0110
0000
,
0110
0000
0110
0000
,
1001
0000
1001
0000
,
1001
0000
0110
0000
,
0110
0000
1001
0000
,
0001
0000
1000
0000
,
0001
0000
1000
0000
,
0010
0010
0010
0000
,
0100
0100
0100
0000
,
1000
1000
1000
0000
,
0001
0001
0001
0000
,
1000
1000
1000
0000
,
0001
0001
0001
0000
,
0100
0100
0100
0000
,
0010
0010
0010
0000
,
1000
0000
0001
0000
,
1000
0000
0001
0000
,
0010
0000
0100
0000
,
0010
0000
0100
0000
,
1000
0000
0001
0000
,
1000
0000
0001
0000
,
1000
0000
0010
0000
,
1000
0000
0001
0000
,
0100
0000
0001
0000
,
1000
0000
0100
0000
,
1000
0000
0001
0000
,
1001
0000
0001
0000
,
1001
0000
1000
0000
,
0100
0000
1000
0000
,
0001
0000
0010
0000
,
0001
0000
1000
1000
;

//---------------dance-single - Basic----------------
#NOTES:
     dance-single:
     Basic:
     Easy:
     3:
     0.285,0.277,0.048,0.105,0.000:
0000
0000
1000
1000
,
1000
0000
0000
0001
,
0001
0000
0010
0000
,
0100
0100
0100
1000
,
1000
1000
1000
0001
,
1001
0000
0000
0001
,
1000
0000
0000
0000
,
1000
1000
1000
1000
,
0100
0100
0010
0010
,
0100
1000
0001
0100
,
0001
0010
0100
1000
,
0001
0000
0000
0000
,
0010
1000
0100
0010
,
0100
1000
0001
0100
,
0001
1000
0100
0010
,
0100
1000
0001
0100
,
0001
0001
1000
1000
,
1001
0000
0001
0010
,
0100
1000
0100
0010
,
0001
0100
0010
1000
,
0100
1000
0001
1000
,
0002
1000
1000
1000
,
2003
0100
0100
0100
,
3200
0010
0010
0010
,
0320
0001
0001
0001
,
0032
0100
0100
0100
,
0203
0010
0010
0010
,
0320
2000
3000
2000
,
3000
2000
3000
2000
,
3030
0100
1000
0001
,
1000
0001
1000
0001
,
0010
0100
1000
0001
,
0100
0010
1000
0100
,
1000
1000
0001
0001
,
0010
0010
0100
0100
,
1000
1000
0001
0001
,
0100
0100
0010
0010
,
1000
0100
1000
0001
,
0100
0001
1000
0100
,
0010
0100
1000
0010
,
0100
0001
0010
1000
,
0010
0001
0100
1000
,
0100
0001
0010
0100
,
1000
0100
0001
0010
,
1000
0010
0001
0100
,
1000
0100
0001
0010
,
0100
1000
0010
0100
,
0010
1000
0100
0010
,
0001
1000
0001
1001
,
1001
0001
0010
0100
,
1000
0010
0100
0010
,
1000
0100
0010
0001
,
0010
0100
0010
0110
;

//---------------dance-single - Trick----------------
#NOTES:
     dance-single:
     Trick:
     Medium:
     6:
     0.400,0.353,0.029,0.000,0.000:
0000
0000
0000
0000
0001
1000
0100
0000
,
0010
0100
1000
0000
0001
0000
0001
0000
,
0010
0100
1000
0000
0010
0000
0010
0000
,
0010
0100
0001
0000
0010
0100
1000
0000
,
0001
1000
0100
0000
1000
0001
0100
0000
,
0001
0000
1000
0000
0100
0010
0100
0000
,
1000
0000
0010
0000
0100
0010
1000
0100
,
0000
1000
0000
0001
0000
1000
0000
0100
,
0000
0010
0000
0100
0000
1000
0000
0001
,
0000
0100
0000
0001
0000
1000
0100
1000
,
0000
0001
0000
0010
0000
0100
0000
1000
,
0001
1000
0000
0100
0010
0100
1000
0001
,
0000
0100
0000
0001
0000
1000
0000
0010
,
1000
0100
1000
0000
0001
1000
0001
0000
,
0100
0001
0100
0000
0001
0010
0100
0000
,
1000
0100
0010
0000
0010
0100
1000
0000
,
0010
0100
0001
0000
0001
1000
0100
0000
,
0010
0100
1000
0000
0001
1000
0001
0100
,
0000
0001
0000
1000
0000
0100
0000
0010
,
0100
1000
0001
0000
0100
0001
1000
0000
,
0010
0100
1000
0010
0100
0010
1000
0000
,
0100
0000
0100
0000
0100
1000
0000
1000
,
0100
0000
0100
0010
0100
0010
0100
0000
,
0010
0000
0001
0000
0100
0001
0000
0001
,
0100
0000
0001
0100
0001
1000
0100
0000
,
0010
0000
0100
0000
1000
0010
0000
0010
,
1000
0100
1000
0000
0001
0100
0001
1000
,
0000
0000
0100
1000
0000
0000
0100
0001
,
0000
0000
0100
1000
0000
0000
0100
0010
,
0100
1000
0000
0001
0000
0100
0010
1000
,
0000
1000
0100
0010
0000
0010
0000
0010
,
0000
1000
0100
1000
0000
0001
0000
0001
,
0000
0010
0100
1000
0000
0100
0000
1000
,
0000
0001
0000
0100
0000
0001
0000
0010
,
0000
0100
1000
0100
0000
1000
0001
1000
,
0000
0001
0010
0001
0000
0010
0100
1000
,
0000
1000
0100
0010
0000
0010
0001
0100
,
0001
1000
0100
1000
0000
1001
0000
0000
,
0001
0000
0010
0100
0000
0000
1000
0000
,
0000
0001
0100
0001
0100
0000
0010
0100
,
1000
0000
1000
0010
0100
0000
0001
0000
,
0000
1000
0100
1000
0100
0000
1000
0000
,
0001
0100
0001
0100
0000
0001
0000
0010
,
0100
1000
0100
1000
0000
0010
0000
1000
,
0100
1000
0000
0001
0100
0001
0100
0000
,
0001
1000
0100
1000
0000
1000
0100
1000
,
0000
0001
0100
0001
0000
0100
0001
0010
,
0100
0000
1000
0010
1000
0000
0100
1000
,
0100
0000
1000
0001
0100
0000
1001
0000
,
1001
0001
0010
0100
0000
1000
0100
1000
,
0000
0001
0100
0001
0000
1000
0010
1000
,
0100
0010
0100
1000
0000
0001
0100
0010
,
0000
1000
0100
0010
0100
1000
0001
0000
;

//---------------dance-single - Maniac----------------
#NOTES:
     dance-single:
     Maniac:
     Hard:
     8:
     0.538,0.504,0.268,0.038,0.000: // measure 1
0000
0000
0000
0010
0001
0100
0010
1000
,  // measure 2
0100
0010
0100
1000
0000
0001
0000
0100
,  // measure 3
0010
1000
0100
0010
0000
0100
1000
0001
,  // measure 4
0000
0100
0001
1000
0000
0100
0010
0100
,  // measure 5
0000
0010
0001
0100
0000
0001
1000
0100
,  // measure 6
1000
0010
0100
0010
0000
1000
0000
0001
,  // measure 7
0100
0001
1000
0100
0000
0010
0100
1000
,  // measure 8
0001
0100
0010
1000
0100
1000
0001
1001
,  // measure 9
0000
1000
0001
0100
0001
0010
0100
1000
,  // measure 10
1100
1000
0001
0100
0001
0010
0100
1000
,  // measure 11
0010
0100
0010
1000
0100
0010
0001
0100
,  // measure 12
0001
1000
0001
0100
0010
1000
0100
0010
,  // measure 13
0100
1000
0001
0100
0001
1000
0001
1000
,  // measure 14
1001
0010
0100
1000
0000
0001
0000
0100
,  // measure 15
0010
1000
0100
0010
0000
1001
0000
0100
,  // measure 16
0010
1000
0100
1000
0000
1100
0000
1000
,  // measure 17
0010
0100
0001
0010
0000
0011
0000
0001
,  // measure 18
0010
0100
1000
0100
0010
0100
1000
0001
,  // measure 19
0100
0010
0100
0001
0100
0010
1000
0100
,  // measure 20
0010
0100
1000
0001
0100
0001
0010
0001
,  // measure 21
0100
0001
1000
0100
1000
0001
1000
0001
,  // measure 22
1001
0000
1000
0000
0100
1000
0100
0010
,  // measure 23
0100
1000
0001
0100
0010
1000
0100
0010
,  // measure 24
0100
0000
1000
0000
0001
0100
0001
1000
,  // measure 25
0100
0010
0100
1000
0010
0100
0010
1000
,  // measure 26
0001
0000
0100
0000
0001
0100
0001
0010
,  // measure 27
0100
1000
0010
0100
0010
1000
0001
1000
,  // measure 28
0001
0000
0100
0002
1000
1000
2003
0100
,  // measure 29
0100
3200
0010
0010
0320
0001
0001
0031
,  // measure 30
0011
0001
0000
1000
0000
0100
0010
0100
,  // measure 31
0000
1000
0000
0001
0000
0100
0010
1000
,  // measure 32
0000
0100
0000
0010
0000
0100
1000
0001
,  // measure 33
0000
0100
0000
0001
0000
0010
0001
0100
,  // measure 34
1001
1000
0000
0100
0000
1000
0100
1100
,  // measure 35
0000
1000
0000
0001
0000
0100
0001
0011
,  // measure 36
0000
0010
0100
1000
0000
0001
1000
0100
,  // measure 37
0000
0010
0100
1000
0001
0100
0001
1000
,  // measure 38
1001
1000
0100
1000
0000
0100
0000
0010
,  // measure 39
0100
1000
0001
0100
0000
0101
0000
0001
,  // measure 40
0010
0100
1000
0010
0000
0110
0000
0010
,  // measure 41
1000
0100
0010
0000
0010
0001
0100
0000
,  // measure 42
0010
1000
0100
1000
0000
1100
0000
1000
,  // measure 43
0001
0100
0001
0010
0000
0011
0000
0001
,  // measure 44
0010
0100
1000
0100
1000
0100
0010
0001
,  // measure 45
0010
0001
0100
0001
1000
0001
1001
0000
,  // measure 46
1100
1000
0001
0100
0001
0010
0100
1000
,  // measure 47
0010
0100
0010
1000
0001
1000
1001
1001
,  // measure 48
1001
0010
0100
1000
0001
0100
0001
0010
,  // measure 49
0001
0100
0001
1000
0001
1000
1100
1100
,  // measure 50
1100
1000
0001
0100
0001
0010
0001
0100
,  // measure 51
0001
1000
0001
0010
0001
0100
0101
0101
,  // measure 52
0101
0001
0010
0100
1000
0010
0100
0010
,  // measure 53
1000
0100
1000
0001
1000
0001
1001
0000
;
