#TITLE:THE GAME OF DEATH;
#SUBTITLE:;
#ARTIST:Buckethead;
#TITLETRANSLIT:;
#SUBTITLETRANSLIT:;
#ARTISTTRANSLIT:;
#CREDIT:;
#BANNER:THE GAME OF DEATH.png;
#BACKGROUND:THE GAME OF DEATH-bg.png;
#LYRICSPATH:;
#CDTITLE:Bucketheadland.png;
#MUSIC:THE GAME OF DEATH.mp3;
#OFFSET:-7.400;
#SAMPLESTART:23.180;
#SAMPLELENGTH:12.000;
#SELECTABLE:YES;
#BPMS:0.000=130.448;
#STOPS:;
#BGCHANGES:;

//---------------dance-single - Beginner----------------
#NOTES:
     dance-single:
     Beginner:
     Beginner:
     1:
     0.119,0.192,0.104,0.000,0.010:
1001
0000
0000
0100
,
1001
0000
0000
0010
,
1001
0000
0000
0000
,
0000
0000
0000
0000
,
1000
0000
0000
0000
,
0000
0000
0000
0001
,
0001
0000
0000
0000
,
0000
0000
0000
0000
,
0010
0000
0000
0000
,
0001
0000
1000
0000
,
0001
0000
0000
0000
,
0010
0000
0000
0000
,
1000
0000
0000
0000
,
0001
0000
0010
0000
,
0100
0000
0000
0000
,
1000
0000
0001
0000
,
1001
0000
0000
0000
,
0100
0000
0000
0000
,
0010
0000
0000
0000
,
1000
0000
0000
0001
,
1001
0000
0000
0000
,
0100
0000
0000
0000
,
0010
0000
0000
0000
,
1000
0000
0001
0000
,
1000
0000
0001
0000
,
1000
0000
0000
0000
,
0010
0000
0100
0000
,
0010
0000
0000
0000
,
0001
0001
0001
0000
,
1000
1000
1000
0000
,
0100
0000
0010
0000
,
0100
0000
0000
0000
,
0001
0000
1000
0000
,
0001
0000
1000
0000
,
0001
0000
0010
0000
,
0100
0000
0010
0000
,
0100
0000
1000
0000
,
0001
0000
1000
0000
,
0100
0000
1000
0000
,
0001
0000
0100
0000
,
0001
0000
0000
1000
,
1001
0000
0000
0001
,
1001
0000
0000
0000
,
0000
0000
0000
0000
,
0110
0000
0000
0010
,
0110
0000
0000
0000
0000
0000
0000
0000
0000
0000
0000
0000
0000
0100
0000
0000
,
0000
0110
0000
0000
0000
0000
0000
0000
0000
0000
0000
0000
0000
0000
0000
0000
;

//---------------dance-single - Basic----------------
#NOTES:
     dance-single:
     Basic:
     Easy:
     3:
     0.205,0.249,0.146,0.125,0.010:
1001
0000
0000
0100
,
1001
0000
0000
0100
,
2002
0000
0000
0000
,
0000
0000
3003
0000
,
0010
1000
0000
0001
,
0100
0001
0000
1001
,
0100
1000
0000
0001
,
0100
0001
0000
1000
,
0001
0000
0000
0010
,
0100
1000
0001
0100
,
1001
0000
0000
0010
,
1000
0100
1000
0001
,
1001
0000
0000
0000
,
0010
0001
1000
0001
,
2000
0000
0000
0000
,
3002
0000
0000
0000
,
0013
0000
0100
0000
,
1000
0100
1000
0100
,
2000
0000
0000
0000
,
3001
0100
0001
0100
,
0002
0000
0000
0000
,
0013
0100
0010
0100
,
0020
0000
0000
0000
,
0230
0000
0000
0000
,
1300
0000
1000
0000
,
0001
0000
0001
0000
,
1000
0000
1000
0000
,
0001
0000
0001
0000
,
0010
0000
0010
0000
,
0100
0000
0100
0000
,
0010
0000
0010
0000
,
0100
0000
0100
0000
,
1000
0100
1000
0001
,
0100
0001
1000
0100
,
1000
0001
0100
0001
,
1000
0100
1000
0010
,
0100
0010
1000
0100
,
0010
0100
1000
0001
,
0100
0001
0010
0001
,
0100
0001
1000
0100
,
1001
0000
0000
0100
,
0110
0000
0000
0001
,
2002
0000
0000
0000
,
0000
0000
3003
0000
,
1001
0000
0000
0110
,
1001
0000
0000
0000
0000
0000
0000
0000
0000
0000
0000
0000
0000
0110
0000
0000
,
0000
2002
0000
0000
0000
0000
0000
0000
0000
0000
0000
0000
0000
0000
0000
0000
,
0000
0000
0000
3003
;

//---------------dance-single - Trick----------------
#NOTES:
     dance-single:
     Trick:
     Medium:
     5:
     0.370,0.398,0.354,0.250,0.010:
2200
0000
3300
0101
,
0022
0000
0033
1001
,
2020
0000
0000
0000
,
0000
0000
3030
0000
,
1001
0100
0000
1001
,
0100
0001
0000
1001
,
0110
1100
0000
0001
,
0100
0001
1000
0100
,
0010
0000
0100
0000
1000
0001
1000
0000
,
0100
1000
0001
0101
,
2020
0000
0000
0000
3030
0000
0100
1000
,
0100
0010
0001
1001
,
2200
0000
0000
3300
,
0001
0000
1000
0100
0010
0000
0100
0000
,
2002
0000
3003
0100
,
1100
0000
1010
0000
,
1001
0000
0001
0000
0100
0001
1000
0100
,
0010
0001
1000
0100
,
1001
0000
0100
0000
0010
1000
0100
0000
,
1001
0110
1001
0011
,
0101
0000
0100
1000
0100
0000
0010
0100
,
1000
0000
0010
0100
0001
0000
0010
0001
,
0100
0001
1000
0100
,
1000
0100
1000
0000
0001
0100
0001
0000
,
1000
1000
0000
0001
0001
0000
0010
0010
,
0100
0100
0000
1000
1000
0000
0001
0001
,
0100
0100
0000
0010
0010
0000
1000
1000
,
0100
0100
0000
1000
1000
0000
0001
0001
,
0100
0100
0000
0010
0010
0000
1000
1000
,
0100
0100
0000
0010
0010
0000
0100
0100
,
1000
1000
0000
0001
0001
0000
0100
0100
,
0010
0010
0000
0100
0100
0000
0001
0001
,
0010
0010
0000
0010
0010
0000
0001
0001
,
0100
0100
0000
0100
0100
0000
0001
0001
,
0010
0010
0000
0100
0100
0000
1000
1000
,
1000
1000
0000
0001
0001
0001
0001
0000
,
0010
0100
1000
0000
0001
0100
0001
0000
,
0010
0100
1000
0000
0010
0100
0001
0000
,
1000
0001
1000
0000
0100
0010
0100
0000
,
0010
0100
1000
0000
0001
0100
0001
0000
,
2002
0000
3003
0110
,
2200
0000
3300
0101
,
2002
0000
0000
0000
,
0000
0000
3003
0000
,
0220
0000
0330
1001
,
2200
0000
0000
0000
0000
0000
0000
0000
3300
0000
0000
0000
0000
0011
0000
0000
,
0000
0202
0000
0000
0000
0000
0000
0000
0000
0000
0000
0000
0000
0000
0000
0000
,
0000
0000
0000
0303
;

//---------------dance-single - Maniac----------------
#NOTES:
     dance-single:
     Maniac:
     Hard:
     8:
     0.466,0.622,0.229,0.260,0.146:
2002
0000
3003
0011
,
2200
0000
3300
0110
,
2002
0000
0000
0000
,
0000
0000
0000
3003
,
0220
0000
0000
0000
,
0000
0000
0330
1001
,
2200
0000
0000
0000
,
0000
0000
0000
3300
,
1001
0000
0100
1000
0100
1000
0001
0000
,
0100
0000
0001
0010
0100
1000
0010
0000
,
0100
0000
0010
1000
0100
0010
0001
0000
,
0010
0000
0100
1000
0001
0100
0001
0000
,
1100
0000
0100
0010
0100
1000
0001
0000
,
0100
0000
0001
0010
0100
1000
0001
0100
,
0002
1000
1000
1003
,
2000
0001
0001
3001
,
1001
0000
0100
0010
0100
1000
0001
0100
,
0001
1000
0100
0010
0001
0000
1100
0000
,
0011
0000
0001
0100
0001
1000
0100
0010
,
0100
1000
0001
0100
0001
0000
1010
0000
,
1100
0000
0001
1000
0100
0010
0100
0010
,
0001
0100
0001
0010
0001
0100
0010
1000
,
0200
1000
1000
2300
,
0001
0001
0001
3001
,
1000
0100
0010
0100
1000
0001
0100
0001
,
0010
0001
0100
0001
1000
0100
0010
0100
,
1000
0010
0100
0010
1000
0100
0010
0001
,
0010
0001
0010
0100
1000
0010
1000
0010
,
0100
0001
0010
0100
1000
0010
0100
0001
,
0010
0100
1000
0001
0100
0001
0010
0100
,
1000
0001
1000
0100
0010
0100
1000
0001
,
0100
0001
1000
0001
1000
0001
0010
0001
,
0100
0001
0100
0000
0001
0000
1000
0100
1000
0000
0100
0000
0010
0100
1000
0000
,
0001
1000
0001
0000
0100
0000
0001
1000
0001
0000
0010
0000
0100
0010
0100
0000
,
1000
0001
1000
0000
0001
0000
0100
0001
0100
0000
0001
0000
0010
0100
1000
0000
,
0100
1000
0100
0000
0010
0000
0001
0100
0001
0000
0010
0000
0001
0000
0100
0000
,
0001
1000
0001
1000
0001
0000
0010
0000
0100
0000
1000
0100
1000
0100
1000
0000
,
0001
0000
0100
0001
0010
0100
1000
0000
1000
0001
1000
0000
0001
1000
0001
0000
,
0100
1000
0100
1000
0100
0000
0010
0000
0100
0000
1000
0100
1000
0100
1000
0000
,
0001
0000
0100
0000
0001
0000
0010
0000
0001
0010
0001
0000
1000
0100
1000
0010
,
0200
0000
0000
0301
,
2002
0000
3003
0100
,
0220
0000
0000
0000
,
0000
0000
0330
0000
,
2200
0000
3300
1001
,
0202
0000
0000
0000
0000
0000
0000
0000
0303
0000
0000
0000
0000
0011
0000
0000
,
0000
2002
0000
0000
0000
0000
0000
0000
0000
0000
0000
0000
0000
0000
0000
0000
,
0000
0000
0000
3003
;
