#TITLE:THE CHURCH OF HOT ADDICTION;
#SUBTITLE:;
#ARTIST:COBRA STARSHIP;
#TITLETRANSLIT:;
#SUBTITLETRANSLIT:;
#ARTISTTRANSLIT:;
#CREDIT:;
#BANNER:THE CHURCH OF HOT ADDICTION.png;
#BACKGROUND:THE CHURCH OF HOT ADDICTION-bg.png;
#LYRICSPATH:;
#CDTITLE:While the City Sleeps... We Rule the Streets.png;
#MUSIC:THE CHURCH OF HOT ADDICTION.mp3;
#OFFSET:-6.589;
#SAMPLESTART:45.048;
#SAMPLELENGTH:12.000;
#SELECTABLE:YES;
#BPMS:0.000=147.935;
#STOPS:;
#BGCHANGES:0.000=THE CHURCH OF HOT ADDICTION.avi=1.000=1=0=0,
190.000=THE CHURCH OF HOT ADDICTION-bg.png=1.000=1=0=0,
99999=-nosongbg-=1.000=0=0=0 // don't automatically add -songbackground-
;

//---------------dance-single - Beginner----------------
#NOTES:
     dance-single:
     Beginner:
     Beginner:
     2:
     0.184,0.224,0.257,0.000,0.000:
0001
0000
0000
0000
,
0001
0000
0000
0000
,
1000
0000
0000
0000
,
1000
0000
0000
0000
,
1001
0000
0001
0000
,
0001
0001
0001
0000
,
1001
0000
1000
0000
,
1000
1000
1000
0000
,
1001
0000
0010
0000
,
0010
0010
0010
0000
,
1001
0000
0100
0000
,
0100
0100
0100
0000
,
1001
0000
0001
0000
,
1000
1000
1000
0000
,
1001
0000
0010
0000
,
0100
0100
0100
0000
,
1001
0000
0010
0000
,
0001
0001
0001
0000
,
1000
0000
0001
0000
,
1000
1000
1000
0000
,
1001
0000
0000
0000
,
0001
0000
0000
0000
,
1000
0000
0000
0000
,
1001
0000
0000
0000
,
0010
0000
0000
0000
,
0100
0000
0000
0000
,
0010
0010
0010
0010
,
0010
0000
0000
0000
,
1000
0000
0000
0000
,
0001
0000
0000
0000
,
1000
1000
1000
0000
,
0001
0001
0001
0000
,
0000
1001
1001
1001
,
0000
0000
0000
0000
,
0000
0110
0110
0110
,
0000
0000
0000
0000
,
0000
1001
1001
1001
,
0000
0000
0000
0000
,
0000
0110
0110
0110
,
0000
0000
0000
0000
,
0001
0000
1000
0000
,
0001
0000
0000
0000
,
0010
0000
0100
0000
,
0010
0000
0000
0000
,
1000
0000
0100
0000
,
1000
0000
0000
0000
,
0001
0000
0100
0000
,
0001
0000
0000
0000
,
1001
0000
0000
0000
;

//---------------dance-single - Basic----------------
#NOTES:
     dance-single:
     Basic:
     Easy:
     3:
     0.269,0.280,0.362,0.093,0.000:
0001
0000
1000
0000
,
1001
1001
1001
0000
,
0010
0000
0100
0000
,
0110
0110
0110
0000
,
0002
0000
1003
0000
,
1000
1000
1000
0000
,
2000
0000
3001
0000
,
0001
0001
0001
0000
,
0020
0000
0130
0000
,
0010
0010
0010
0000
,
0200
0000
0310
0000
,
0100
0100
0100
0000
,
1001
0000
1000
0000
,
0001
1000
0001
0000
,
0110
0000
0100
0000
,
0010
0100
0010
0000
,
1001
0000
0100
0000
,
0010
0100
0010
0000
,
0110
0000
1000
0000
,
0001
1000
0001
0000
,
0100
0000
0100
0000
,
0100
0000
0100
0000
,
0010
0000
0010
0000
,
0010
0000
0000
0000
,
2001
0001
0001
0001
,
3001
0000
0001
0000
,
1002
1000
1000
1000
,
1003
0000
1000
0000
,
0210
0010
0010
0010
,
0310
0000
0010
0000
,
0120
0100
0100
0100
,
0130
0000
0100
0000
,
0000
0001
1000
0001
,
1001
0000
1001
0000
,
0000
0010
0100
0010
,
0110
0000
0110
0000
,
0000
1000
0001
1000
,
1001
0000
1001
0000
,
0000
0100
0010
0100
,
0110
0000
0110
0000
,
0000
0001
0010
0001
,
1001
0000
1001
0000
,
0000
0010
1000
0010
,
1001
0000
1001
0000
,
0000
0100
0001
0100
,
1001
0000
1001
0000
,
0000
0100
1000
0100
,
1001
0000
1001
0000
,
1001
0000
0000
0000
;

//---------------dance-single - Trick----------------
#NOTES:
     dance-single:
     Trick:
     Medium:
     5:
     0.439,0.393,0.502,0.000,0.000:
0001
1000
0001
1000
,
1001
1001
1001
1001
,
0010
0100
0010
0100
,
0011
1100
0110
1001
,
0001
0010
0000
0100
1000
0000
0001
1000
,
0000
0100
0000
0010
0000
0100
1000
0000
,
0001
0100
0000
0001
0010
0000
0001
1000
,
0000
0100
0000
1000
0000
0001
1000
0000
,
0100
0010
0000
0100
1000
0000
0001
0100
,
0000
0010
0000
1000
0000
0100
0010
0000
,
0001
1000
0000
0100
0010
0000
0001
1000
,
0000
0100
0000
0010
0000
0100
1000
0000
,
0001
1000
0001
0000
0010
0000
0001
0000
,
0100
0001
0100
0000
0001
0000
1000
0000
,
0100
1000
0010
0000
1000
0000
0100
0000
,
0010
0100
1000
0000
0001
0000
0100
0000
,
0001
0010
0100
0000
1000
0000
0001
0000
,
0100
0010
1000
0000
0010
0000
1000
0000
,
0010
0100
0010
0000
0100
0000
0010
0000
,
1000
0100
0010
0001
,
1001
0000
0001
0001
0000
0000
1001
0000
,
1000
0000
1000
1000
0000
0000
1001
0000
,
0001
0000
0001
0001
0000
0000
1001
0000
,
0001
0000
1000
0000
0100
0010
0100
1000
,
0001
0100
0001
1000
,
1001
0100
0110
0001
,
1001
0001
0011
1100
,
0110
0000
0000
0000
0001
0001
0001
0000
,
1001
0100
0010
0001
,
0100
0010
1000
0000
0100
0000
0010
0000
,
0001
1000
0100
0000
,
1000
0001
1000
0000
0001
1000
0001
0000
,
0000
1001
0110
1001
,
0100
0001
0100
0000
0100
1000
0100
0000
,
0000
1010
0101
0011
,
0001
1000
0001
0000
1000
0100
1000
0000
,
0000
1010
0110
0101
,
0001
0010
0100
0000
1000
0100
0010
0000
,
0000
1001
0110
1001
,
0001
0100
0001
0000
1000
0100
1000
0000
,
0000
1001
0110
1001
,
0100
0010
0100
0000
0010
1000
0010
0000
,
0000
1010
0101
0011
,
0001
0100
0001
0000
1000
0100
1000
0000
,
0000
1100
0011
0101
,
0001
1000
0001
0000
0010
0100
1000
0000
,
0000
1010
0110
1010
,
0010
0100
0010
0000
0100
0001
0010
0000
,
0001
0000
0000
0000
;

//---------------dance-single - Maniac----------------
#NOTES:
     dance-single:
     Maniac:
     Hard:
     8:
     0.543,0.505,0.339,0.000,0.000: // measure 1
0001
1000
0100
0010
0100
1000
0000
0001
,  // measure 2
0000
0100
0000
0001
0010
0100
1000
0000
,  // measure 3
1000
0100
1000
0100
0000
0010
0100
0010
,  // measure 4
0000
0001
1000
0001
1000
0001
1000
0000
,  // measure 5
0100
0010
0000
0100
1000
0010
0100
0010
,  // measure 6
0000
1000
0000
0001
0000
1000
0100
0010
,  // measure 7
0100
1000
0000
0001
0100
0001
0010
0100
,  // measure 8
0000
1000
0000
0001
0000
0100
0010
0000
,  // measure 9
1000
0010
0100
0010
1000
0100
0000
0010
,  // measure 10
0000
0001
0000
0100
0001
1000
0100
0000
,  // measure 11
0010
0001
1000
0100
0010
0100
0000
1000
,  // measure 12
0000
0001
0000
0100
0001
1000
0001
0000
,  // measure 13
0001
0010
0100
1000
0100
0010
0001
0100
,  // measure 14
0000
0001
0000
1000
0100
1000
0100
0000
,  // measure 15
0010
0100
1000
0010
0100
0010
1000
0100
,  // measure 16
0000
0010
0000
0001
0100
0001
1000
0000
,  // measure 17
0001
0010
0100
1000
0010
0100
0010
1000
,  // measure 18
0000
0100
0000
0010
0100
0010
0100
0000
,  // measure 19
0001
1000
0000
0100
1000
0100
0000
1000
,  // measure 20
0001
0100
0001
0100
0001
0010
0001
0000
,  // measure 21
1000
0000
0001
0001
0000
0000
1001
0000
,  // measure 22
1000
0000
0001
0001
0000
0000
1001
0000
,  // measure 23
1000
0000
0001
0001
0000
0000
1000
0000
,  // measure 24
0001
0010
0100
1000
0100
0010
0001
0100
,  // measure 25
0001
1000
0001
1000
0001
1000
0001
0000
,  // measure 26
0010
0100
0010
0100
0010
0001
0010
0000
,  // measure 27
0001
0100
0001
1000
0100
1000
0001
0000
,  // measure 28
1000
0100
0001
0000
0001
0100
1000
0000
,  // measure 29
1001
0000
0100
0010
0100
1000
0010
0000
,  // measure 30
0110
0000
0010
1000
0100
0010
0001
0000
,  // measure 31
0100
0001
1000
0000
0100
1000
0001
0000
,  // measure 32
1000
0001
1000
0001
0010
0001
0100
0001
,  // measure 33
1000
1001
0110
1001
,  // measure 34
0001
0100
0001
0010
0001
0100
0001
1000
,  // measure 35
0100
1001
0110
1001
,  // measure 36
0001
0010
0100
1000
0010
0100
0010
1000
,  // measure 37
0100
0110
1001
0110
,  // measure 38
0001
0010
0001
0100
0001
1000
0100
0010
,  // measure 39
0100
1010
0110
0011
,  // measure 40
0001
0100
0001
0000
0010
0100
1000
0100
,  // measure 41
0010
1001
0110
1001
,  // measure 42
0001
0100
0001
0010
0100
1000
0010
0100
,  // measure 43
0010
0001
0011
0000
1010
0000
1100
0000
,  // measure 44
0100
0010
0100
1000
0001
0100
0001
0010
,  // measure 45
0001
0100
1001
0000
0110
0000
1100
0000
,  // measure 46
0001
0100
0001
0010
0100
1000
0010
0100
,  // measure 47
0010
1000
0110
0000
1001
0000
0101
0000
,  // measure 48
0001
0010
0100
1000
0001
1000
0001
1000
,  // measure 49
1001
0000
0000
0000
;
