#TITLE:そこにあるかもしれない・・・;
#SUBTITLE:;
#ARTIST:尼崎まゆみ;
#TITLETRANSLIT:Sokoni arukamo shirenai...;
#SUBTITLETRANSLIT:;
#ARTISTTRANSLIT:Amasaki Mayumi;
#CREDIT:;
#BANNER:Sokoni arukamo shirenai.png;
#BACKGROUND:Sokoni arukamo shirenai-bg.png;
#LYRICSPATH:;
#CDTITLE:Hime Trance.png;
#MUSIC:Sokoni arukamo shirenai.mp3;
#OFFSET:-0.548;
#SAMPLESTART:56.740;
#SAMPLELENGTH:12.000;
#SELECTABLE:YES;
#BPMS:0.000=144.011;
#STOPS:;
#BGCHANGES:;

//---------------dance-single - ----------------
#NOTES:
     dance-single:
     :
     Easy:
     4:
     0.239,0.290,0.010,0.135,0.000:
0000
0000
0000
0000
,
0000
0000
0000
0000
,
1000
0000
0000
0000
,
0100
0000
0000
0000
,
0001
0000
0000
0000
,
0100
0000
0000
0000
,
0010
0000
0100
0000
,
0020
0000
0000
0030
,
0000
0000
0000
0000
,
1000
0001
1000
0001
,
0100
1000
0100
1000
,
0001
1000
0001
1000
,
0100
0001
0100
0001
,
1000
0010
1000
0010
,
0001
0100
0001
0100
,
0001
0010
0001
0010
,
1000
0100
1000
0100
,
1000
0000
0001
0000
,
0100
0010
1000
0001
,
0100
0000
0010
0000
,
1000
0100
0010
0001
,
1000
0000
0010
0000
,
0100
0001
0010
0100
,
1000
0000
0010
0000
,
0100
0001
1000
0100
,
0020
0000
0130
0000
,
0200
0000
0310
0000
,
2000
0000
3001
0000
,
0002
0000
1003
0000
,
0200
0300
0020
0030
,
0002
0003
2000
3000
,
0020
0030
0200
0300
,
1000
0000
0001
0000
,
0100
0000
0000
0100
,
0010
1000
0100
0000
,
0100
1000
0010
0000
,
0100
0001
0010
0000
,
0010
0001
0100
0000
,
0001
0100
1000
0000
,
1000
0100
0001
0000
,
0001
0010
1000
0010
,
0001
0000
0000
0010
,
0001
1000
0100
0000
,
1000
0001
0100
0000
,
0001
1000
0010
0000
,
1000
0001
0010
0000
,
1000
0010
0001
0000
,
0001
0010
1000
0000
,
1000
0100
0001
0100
,
2000
0000
0000
3000
,
0001
1000
1000
1000
,
0001
0100
0100
0000
,
1000
0001
0001
0001
,
1000
0100
0100
0000
,
0001
0010
0010
0010
,
1000
0100
0100
0000
,
1000
0010
0010
0010
,
0001
0100
0010
0100
,
2002
0000
0000
0000
,
0000
0000
0000
0000
,
3003
0000
0000
0000
;

//---------------dance-single - ----------------
#NOTES:
     dance-single:
     :
     Hard:
     8:
     0.438,0.435,0.010,0.145,0.174: // measure 1
0000
0000
0000
0000
,  // measure 2
0000
0000
0000
0000
0000
0000
0000
0100
,  // measure 3
0100
0000
1000
0000
,  // measure 4
0010
0000
0001
1000
0001
0000
0000
1000
,  // measure 5
1000
0000
0100
0000
,  // measure 6
0010
0000
1000
0100
0001
0000
0000
0100
,  // measure 7
0100
0000
0001
0000
0100
1000
0010
0100
,  // measure 8
0001
0010
0200
0000
0000
0000
0000
0000
,  // measure 9
0020
0000
0000
0330
,  // measure 10
1000
0000
0000
0100
0000
0000
0010
0000
0000
0001
0000
0000
0100
0000
0010
0000
,  // measure 11
1000
0000
0000
0001
0000
0000
0100
0000
0000
0010
0000
0000
1000
0000
0001
0000
,  // measure 12
0100
0000
0000
1000
0000
0000
0100
0000
0000
0001
0000
0000
1000
0000
0100
0000
,  // measure 13
0001
0000
0000
0100
0000
0000
1000
0000
0000
0000
0010
0000
0100
0000
0001
0000
,  // measure 14
1000
0000
0000
0010
0000
0000
0100
0000
0000
0001
0000
0000
0010
0000
0100
0000
,  // measure 15
1000
0000
0000
0010
0000
0000
0100
0000
0000
0001
0000
0000
1000
0000
0100
0000
,  // measure 16
0010
0000
0000
0001
0000
0000
0010
0000
0000
1000
0000
0000
0010
0000
0001
0000
,  // measure 17
1000
0000
0000
0100
0000
0000
0001
0000
0000
0000
0100
0000
1000
0000
0010
0000
,  // measure 18
0100
0000
0001
0000
1000
1000
1000
0000
,  // measure 19
0100
0010
0001
0100
,  // measure 20
0010
0010
0010
0000
1000
0000
1000
0000
,  // measure 21
0010
0010
0010
0000
0001
0000
0001
0000
,  // measure 22
1000
0100
0001
0000
0100
0000
1000
0000
,  // measure 23
0010
0000
0100
0100
0100
0000
0001
0000
,  // measure 24
1000
0010
0001
0000
0001
0010
1000
0000
,  // measure 25
0100
0100
0100
0000
0010
0000
0001
0000
,  // measure 26
1000
0000
0000
0010
0000
0000
1000
0000
0001
0000
0000
0010
0000
0000
0001
0000
,  // measure 27
0100
0000
0000
0010
0000
0000
1000
0000
0100
0000
0000
0010
0000
0000
0001
0000
,  // measure 28
0100
0000
0000
0001
1000
0001
0000
0100
,  // measure 29
0010
0000
1000
0100
0001
0000
0100
0000
,  // measure 30
1000
0001
1000
0001
0200
0000
0310
0000
,  // measure 31
0001
1000
0001
1000
0200
0000
0310
0000
,  // measure 32
2002
0000
0000
0000
3003
0000
0000
0000
0010
0000
0000
1000
0000
0000
0001
0000
,  // measure 33
0010
0000
0100
2000
0002
0000
3003
0000
,  // measure 34
0100
0000
0000
0000
0000
0000
0000
0000
0000
0000
0000
0000
1000
0000
0001
1000
,  // measure 35
0000
0000
0100
0010
0001
1000
0100
0000
,  // measure 36
0001
0000
0000
0000
1000
0000
0001
1000
0000
0000
0000
0000
0010
0000
0100
0010
,  // measure 37
0000
0000
1000
0100
0001
0100
1000
0000
,  // measure 38
0001
0000
0100
0000
0010
0000
0100
0010
0000
0000
0000
0000
1000
0000
0001
1000
,  // measure 39
0000
0000
0100
0010
0001
1000
0010
0000
,  // measure 40
0100
0000
0000
0000
0001
0000
1000
0001
0000
0000
0000
0000
0100
0000
0010
0000
,  // measure 41
0200
0000
0301
0000
1000
0100
0001
0100
,  // measure 42
0010
0000
0002
0000
2000
0000
0000
0000
3003
0000
0000
0000
0010
0000
1000
0001
,  // measure 43
0000
0000
0100
0010
1000
0001
0100
0000
,  // measure 44
1000
0000
0000
0000
0010
0000
1000
0001
0000
0000
0000
0000
0100
0000
0001
1000
,  // measure 45
0000
0000
0001
0100
1000
0100
0001
0000
,  // measure 46
0100
0000
0010
0000
0100
0000
0001
1000
0000
0000
0000
0000
1000
0000
0001
0100
,  // measure 47
0000
0000
0010
1000
0001
0010
0100
0000
,  // measure 48
0001
0000
0000
0000
1000
0000
0001
0100
0000
0000
0000
0000
0001
0000
1000
0000
,  // measure 49
0002
0000
0103
0000
0010
1000
0010
0001
,  // measure 50
0010
0200
0002
0000
0303
0000
0000
0000
,  // measure 51
1000
0000
0001
1000
0000
0000
0000
0000
0100
0000
0000
0000
0010
0000
0000
0000
,  // measure 52
0001
0000
1000
0001
0000
0000
0000
0000
0100
0000
0000
0000
0010
0000
0000
0000
,  // measure 53
1000
0010
0100
0001
0010
0100
0000
1000
,  // measure 54
0000
0100
0000
0001
0010
0100
1000
0000
,  // measure 55
0010
0100
0001
0000
1000
0100
0010
0000
,  // measure 56
0001
0100
0010
0000
1000
0001
1000
0000
,  // measure 57
0010
0000
0000
0100
0000
0001
0000
1000
0000
0000
0010
0000
0010
0000
0000
0000
,  // measure 58
0100
0010
0001
1000
0010
0100
0001
0010
,  // measure 59
0200
0000
0000
0000
,  // measure 60
0000
0000
0000
0000
,  // measure 61
0300
0000
0000
0000
;

//---------------dance-single - ----------------
#NOTES:
     dance-single:
     :
     Medium:
     6:
     0.374,0.377,0.019,0.155,0.000:
0000
0000
0000
0000
,
0000
0000
0000
0000
0000
0000
0000
0001
,
0001
0000
0000
0000
,
0100
0000
0000
0000
0000
0000
0000
1000
,
1000
0000
0000
0000
,
0001
0000
0000
0000
0000
0000
0000
0100
,
0100
1000
0001
0100
,
0010
1000
0200
0000
0000
0000
0000
0000
,
0320
0000
0000
0000
,
0031
0000
0100
0000
0010
1000
0001
1000
,
0010
0000
1000
0000
0001
0100
0010
0000
,
1000
0000
0100
0000
0010
0001
1000
0001
,
0010
0000
0100
0000
1000
0010
0100
0000
,
0001
0000
1000
0000
0010
0100
0001
0100
,
0010
0000
1000
0000
0100
0010
0001
0000
,
0100
0000
0010
0000
1000
0001
0100
0001
,
1000
0000
0100
0000
0010
0001
0100
0000
,
0001
0000
0100
0000
1000
1000
1000
0000
,
0100
0001
0010
0100
,
1000
0001
0100
0010
,
1000
1000
1000
0000
0200
0000
0310
0000
,
0001
0001
0001
0000
1000
0000
0100
0000
,
0010
0000
0100
0100
0100
0000
1000
0000
,
0001
0100
0010
1000
,
0001
0000
0010
1000
0001
0000
0000
0000
,
0100
0000
0100
0010
1000
0000
0100
0010
,
0001
0000
1000
0000
0010
0010
0010
0000
,
0100
0000
0100
0001
0010
0000
0100
1000
,
0010
0000
0100
0000
0001
0001
0001
0000
,
1000
0000
0100
0000
1000
0001
0000
0000
,
0001
0000
0100
0000
0001
1000
0000
0000
,
0200
0000
0320
0000
,
0032
0000
2000
3003
,
0110
0000
0000
0010
,
1000
0100
1000
0000
0001
0100
0001
0000
,
0100
0000
0010
1000
0001
0000
0100
0000
,
0001
0010
0001
0000
1000
0010
1000
0000
,
0001
0000
0100
0010
1000
0000
0001
0000
,
0100
0010
1000
0000
0100
0010
0001
0000
,
1000
0000
0001
0100
1000
0000
0100
0000
,
0001
0000
0010
0000
0001
0001
0001
0000
,
0200
0020
0330
1000
,
0001
0100
0001
0000
1000
0010
1000
0000
,
0001
0100
0010
0000
2000
0000
3001
0000
,
1000
0010
1000
0000
0001
0010
0001
0000
,
1000
0010
0100
0000
0002
0000
1003
0000
,
0100
1000
0001
0000
0100
0001
1000
0000
,
0010
0100
0010
0000
2000
0000
3001
0000
,
0100
0000
0010
0000
1000
1000
1000
0000
,
0020
0200
0000
0330
,
1000
0001
0100
0000
1000
0000
0100
0000
,
0001
1000
0100
0000
1000
0000
0100
0000
,
0010
0000
1000
0000
0001
0010
0001
0000
,
0010
0000
0001
0000
1000
0010
1000
0000
,
1000
0000
0001
0000
1000
0010
0100
0000
,
0100
0000
0001
0000
0010
0100
1000
0000
,
0001
0000
1000
0000
0100
0010
0001
0000
,
0001
0000
1000
0000
0010
0100
0001
0000
,
2200
0000
0000
0000
,
0000
0000
0000
0000
,
3300
0000
0000
0000
;

//---------------dance-double - ----------------
#NOTES:
     dance-double:
     :
     Easy:
     4:
     0.230,0.290,0.010,0.077,0.000:
00000000
00000000
00000000
00000000
,
00000000
00000000
00000000
00000000
00000000
00000000
00000000
00010000
,
00010000
00000000
00000000
00000000
,
00001000
00000000
00000000
00000000
00000000
00000000
00000000
00001000
,
00001000
00000000
00000000
00000000
,
00010000
00000000
00000000
00000000
00000000
00000000
00000000
01000000
,
01000000
00000000
00000000
00000000
,
00100000
00000000
00000000
00000000
,
00000000
00000000
00000000
00000000
,
10000000
01000000
00010000
01000000
,
00010000
00001000
00010000
00001000
,
00000010
00000001
00000010
00000001
,
00000200
00000300
00000020
00000030
,
00001000
00000001
00000100
00000001
,
00000100
00001000
00000100
00001000
,
00010000
00001000
00010000
00001000
,
02000000
03000000
00020000
00030000
,
00000000
10000000
00000000
01000000
,
10000000
00100000
01000000
00010000
,
00000000
01000000
00000000
00001000
,
00010000
00000100
00000010
00000001
,
00000000
00000100
00000000
00000010
,
00001000
00000001
00000010
00001000
,
00000000
00010000
00000000
00001000
,
00100000
00010000
01000000
00100000
,
10000000
00000000
10000000
00010000
,
01000000
00000000
01000000
00001000
,
00010000
00000000
00010000
00000100
,
00000010
00000000
00000010
00000000
,
00000001
00000010
00001000
00000000
,
00010000
00100000
10000000
00000000
,
10000000
00000000
00010000
00000000
,
01000000
00001000
00010000
00000010
,
00000100
00000000
00000000
00000000
,
00000001
00001000
00000001
00000000
,
00001000
00010000
00001000
00000000
,
00010000
10000000
00010000
00000000
,
00001000
00010000
00001000
00000000
,
00010000
00001000
00000100
00000000
,
00001000
00010000
01000000
00000000
,
00100000
00000000
10000000
00000000
,
01000000
00000000
00100000
00000000
,
10000000
00010000
10000000
00000000
,
00001000
00010000
00001000
00000000
,
00000001
00001000
00000001
00000000
,
00010000
00001000
00010000
00000000
,
00001000
00010000
01000000
00000000
,
00010000
00001000
00000100
00000000
,
00000010
00000000
00001000
00000000
,
00000001
00000000
00000010
00000000
,
00010000
00001000
00100000
00010000
,
01000000
00100000
10000000
00000000
,
10000000
01000000
00010000
00001000
,
00000200
00000300
00000002
00000003
,
00000100
00000010
00000100
00000010
,
00000001
00000100
00001000
00000000
,
00100000
00010000
10000000
01000000
,
00010000
00001000
00000010
00001000
,
00022000
00000000
00000000
00000000
,
00000000
00000000
00000000
00000000
,
00033000
00000000
00000000
00000000
;

//---------------dance-double - ----------------
#NOTES:
     dance-double:
     :
     Medium:
     6:
     0.344,0.435,0.029,0.087,0.043:
00000000
00000000
00000000
00000000
,
00000000
00000000
00000000
00000000
00000000
00000000
00000000
10000000
,
00010000
00000000
00000000
00000000
,
01000000
00000000
00000000
00000000
00000000
00000000
00000000
00010000
,
00001000
00000000
00000000
00000000
,
00000010
00000000
00000000
00000000
00000000
00000000
00000000
00000001
,
00001000
00000000
00000001
00000000
,
00000100
00000010
00000100
00000000
00000000
00000000
00000000
00000000
,
00002002
00000000
00000000
00003003
,
00000010
00000000
00000000
00001000
00000000
00000000
00000010
00000000
00000000
00000000
00001000
00000000
00000100
00000000
00000000
00000000
,
00010000
00000000
00000000
00001000
00000000
00000000
00010000
00000000
00000000
00000000
00001000
00000000
01000000
00000000
00000000
00000000
,
00010000
00000000
00000000
10000000
00000000
00000000
00010000
00000000
00000000
00000000
01000000
00000000
00100000
00000000
00000000
00000000
,
10000000
00000000
00000000
00010000
00000000
00000000
01000000
00000000
00100000
00000000
00000000
00000000
10000000
00000000
00000000
00000000
,
00010000
00000000
00000000
01000000
00000000
00000000
00010000
00000000
00000000
00000000
00100000
00000000
00010000
00000000
00000000
00000000
,
01000000
00000000
00000000
00001000
00000000
00000000
01000000
00000000
00000000
00000000
00001000
00000000
00010000
00000000
00000000
00000000
,
00000010
00000000
00000000
00001000
00000000
00000000
00000010
00000000
00000000
00000000
00001000
00000000
00000001
00000000
00000000
00000000
,
00000100
00000000
00000000
00000010
00000000
00000000
00001000
00000000
00000001
00000000
00000000
00000000
00000010
00000000
00000000
00000000
,
00001000
00010000
00100000
00010000
,
00001000
00000000
00000010
00000010
00000010
00000000
00000100
00000000
,
00001000
00000001
00000100
00001000
,
00010000
00000000
00100000
00100000
00100000
00000000
01000000
00000000
,
00010000
10000000
01000000
00010000
,
00001000
00000000
00000100
00000100
00000100
00000000
00001000
00000000
,
00010000
01000000
10000000
00010000
,
01000000
00001000
00000100
00000000
,
00000001
00000000
00000000
00000100
00000010
00000000
00000000
00001000
,
00000100
00000000
00000000
00010000
00001000
00000000
00000000
00000100
,
00000010
00000000
00000000
00001000
00010000
00000000
00000000
01000000
,
00100000
00000000
10000000
00000000
,
00010000
00000000
01000000
00100000
00000000
00000000
00000000
00000000
,
10000000
00000000
01000000
00100000
00000000
00000000
10000000
01000000
,
00010000
00001000
00000100
00000001
,
00000010
00000000
00000000
00000100
00000000
00000000
00001000
00000000
00000010
00000000
00000000
00000000
00000000
00000000
00000000
00000000
,
00000220
00000000
00000000
00000000
00000330
00000000
00001000
00000001
,
00000100
00001000
00010000
00000100
,
00001000
00000010
00000100
00000000
00001000
00000000
00010000
01000000
,
10000000
00100000
01000000
00010000
,
10000000
00100000
01000000
00000000
00010000
00000000
10000000
01000000
,
00010000
00001000
00100000
00001000
,
00010000
00000000
00001000
00010000
00000100
00000000
00001000
00000000
,
00000200
00001000
00000001
00001300
,
00010000
01000000
10000000
00000000
00000000
00000000
00010000
01000000
,
00100000
10000000
01000000
00010000
,
00001000
00010000
00001000
00000000
00000100
00000000
00000010
00000001
,
00000100
00000010
00001000
00010000
,
00100000
00010000
10000000
00010000
00100000
00000000
00010000
00100000
,
10000000
00100000
00010000
00001000
,
00000010
00000000
00000100
00000001
00000100
00000000
00001000
00000000
,
00020000
00000100
00001000
00030100
,
00001000
00010000
01000000
00000000
00000000
00000000
00000000
00000000
,
10000000
00010000
01000000
00000000
00001000
00000000
00010000
00000000
,
00000010
00001000
00000100
00000000
00010000
00000000
00000010
00000000
,
00000100
00000000
00000001
00000000
00001000
00000001
00000010
00000001
,
00001000
00000200
00000010
00000010
,
00000010
00000310
00000001
00000100
,
00001000
00010000
01000000
10000000
,
00100000
01000000
00010000
00000000
10000000
01000000
00010000
00000000
,
00001000
00010000
00000010
00001000
00000100
00010000
00001000
00000000
,
00020200
00000000
00000000
00000000
,
00000000
00000000
00000000
00000000
,
00030300
00000000
00000000
00000000
;

//---------------dance-double - ----------------
#NOTES:
     dance-double:
     :
     Hard:
     8:
     0.447,0.551,0.068,0.116,0.116:
00000000
00000000
00000000
00000000
,
00000000
00000000
00000000
00000000
00000000
00000000
00000000
01000000
,
01000000
00000000
00000000
00000000
,
00011000
00000000
00000000
00000000
00000000
00000000
00000000
00000010
,
00000010
00000000
00000000
00000000
,
00011000
00000000
00000000
00000000
00000000
00000000
00000000
01000000
,
01000000
00000000
00010000
00000000
10000000
01000000
00010000
00001000
,
00000010
00000001
00001000
00000000
00000000
00000000
00000000
00000000
,
00000220
00000000
00000000
00000330
,
00000001
00000000
00000000
00000100
00000000
00000000
00000001
00000000
00000000
00000100
00000000
00000000
00000010
00000000
00001000
00000000
,
00000100
00000000
00000000
00010000
00000000
00000000
00001000
00000000
00000000
00010000
00000000
00000000
00100000
00000000
10000000
00000000
,
01000000
00000000
00000000
10000000
00000000
00000000
00010000
00000000
00000000
10000000
00000000
00000000
01000000
00000000
10000000
00000000
,
00100000
00000000
00000000
01000000
00000000
00000000
00010000
00000000
00000000
10000000
00000000
00000000
00100000
00000000
00010000
00000000
,
00001000
00000000
00000000
00000010
00000000
00000000
00000001
00000000
00001000
00000000
00000000
00000010
00000000
00000000
00000001
00000000
,
00000010
00000000
00000000
00001000
00000000
00000000
00000100
00000000
00000000
00010000
00000000
00000000
00000100
00000000
00001000
00000000
,
00000010
00000000
00000000
00010000
00000000
00000000
00001000
00000000
00000000
01000000
00000000
00000000
00010000
00000000
10000000
00000000
,
01000000
00000000
00000000
00010000
00000000
00000000
00001000
00000000
00000000
00010000
00000000
00000000
00100000
00000000
10000000
00000000
,
00010000
00000000
01000000
00000000
00100000
10000000
01000000
00000000
,
00010000
00000000
00001000
00000000
00001000
00000100
00000001
00000000
,
00000010
00000100
00001000
00000000
00000100
00000010
00000001
00000000
,
00001000
00000001
00000100
00000001
,
00000001
00000000
00000100
00000000
00000010
00001000
00000100
00000000
,
00001000
00000000
00010000
00000000
00010000
01000000
10000000
00000000
,
00100000
01000000
00010000
00000000
10000000
01000000
00100000
00000000
,
10000000
01000000
00010000
00001000
00000100
00000000
00000000
00000000
,
00000001
00000000
00000000
00000100
00000000
00000000
00001000
00000000
00010000
00000000
00000000
00001000
00000000
00000000
00010000
00000000
,
00100000
00000000
00000000
10000000
00000000
00000000
00100000
00000000
10000000
00000000
00000000
01000000
00000000
00000000
10000000
00000000
,
01000000
00000000
00000000
00010000
00000000
00000000
01000000
00000000
00010000
00000000
00000000
00001000
00000000
00000000
00010000
00000000
,
00001000
00000010
00001000
00000010
00000002
00000000
00001003
00000000
,
00000010
00000100
00001000
00010000
02000000
00000000
03100000
00000000
,
00010000
00000000
01000000
00100000
00020000
00000000
00031000
00000000
,
00000100
00000010
00001000
00000000
00000100
00000010
00000001
00000000
,
00000010
00001000
00000100
00010000
00001000
01000000
00010000
00000000
,
20000000
00000000
00000000
00000000
30000000
00000000
00010000
01000000
,
00200000
00000000
10300000
01000000
00010000
01000000
10000000
00000000
,
00010000
01000000
00001000
00010000
00000100
00000000
00001100
00001000
,
00000010
00000000
00000001
00000100
00001000
00000100
00000001
00000000
,
00001000
00000100
00010000
00001000
00100000
00000000
00110000
00010000
,
10000000
00000000
01000000
00100000
00010000
00000000
01000000
00010000
,
10000000
00100000
00010000
00001000
00000010
00000000
00000001
00001000
,
00000001
00000000
00000001
00000000
00000100
00001000
00010000
00000000
,
00001000
01000000
00020000
00000000
00000000
00000000
01030000
00100000
,
10000000
00000000
01000000
00001000
00010000
00000100
00000010
00000000
,
00000001
00000100
00000010
00001000
00000100
00000000
00010100
00010000
,
00001000
00000000
00100000
00010000
01000000
00100000
10000000
00000000
,
00010000
01000000
10000000
01000000
00010000
00000000
00101000
00001000
,
00010000
00000000
00100000
10000000
01000000
10000000
00100000
00000000
,
01000000
00001000
00010000
00000100
00001000
00000000
00001000
00000001
,
00001000
00000000
00000010
00000000
00010000
00001000
01000000
00000000
,
00001000
00000100
00000002
00000000
00000000
00000000
00000003
00000000
,
00001000
00000000
00000001
00001000
00000001
00000000
00000100
00000000
00000010
00000000
00001000
00000000
00000100
00000000
00010000
00000000
,
00001000
00000000
00010000
00001000
00010000
00000000
00001000
00000000
00010000
00000000
00100000
00000000
01000000
00000000
00010000
00000000
,
10000000
00000000
01000000
00010000
00001000
00000100
00000010
00001000
,
00000000
00000001
00000000
00001000
00000100
00000000
00000001
00000000
,
00000020
00001000
00000100
00000031
,
00000200
00001000
00000001
00000310
,
00001000
00010000
00100000
00000000
00100000
10000000
01000000
00000000
,
00100000
00001000
00010000
00000100
00010000
00001000
01000000
00010000
,
00200000
00000000
00000000
00000000
,
00000000
00000000
00000000
00000000
,
00300000
00000000
00000000
00000000
;

//---------------dance-single - ----------------
#NOTES:
     dance-single:
     :
     Beginner:
     1:
     0.137,0.168,0.048,0.000,0.000:
0000
0000
0000
0000
,
0000
0000
0000
0000
,
1000
0000
0000
0000
,
0100
0000
0000
0000
,
0001
0000
0000
0000
,
0100
0000
0000
0000
,
0010
0000
0100
0000
,
0010
0000
0000
0000
,
0000
0000
0000
0000
,
1000
0000
1000
0000
,
0100
0000
0100
0000
,
0001
0000
0001
0000
,
0100
0000
0100
0000
,
1000
0000
1000
0000
,
0001
0000
0001
0000
,
0010
0000
0010
0000
,
0100
0000
0100
0000
,
1000
0000
0000
0000
,
0100
0000
1000
0000
,
0001
0000
0000
0000
,
1000
0000
0000
0000
,
0010
0000
0000
0000
,
0100
0000
0001
0000
,
1000
0000
0000
0000
,
0100
0000
0000
0000
,
0010
0000
0100
0000
,
0100
0000
0010
0000
,
1000
0000
0001
0000
,
0001
0000
1000
0000
,
0100
0000
0010
0000
,
0001
0000
1000
0000
,
0010
0000
0100
0000
,
1000
0000
0001
0000
,
0100
0000
0000
0100
,
0100
0000
0100
0000
,
0010
0000
0100
0000
,
0001
0000
1000
0000
,
0001
0000
1000
0000
,
0010
0000
0100
0000
,
1000
0000
0001
0000
,
0110
0000
0000
0000
,
1001
0000
0000
0001
,
0001
0000
1000
0000
,
0001
0000
1000
0000
,
0010
0000
0100
0000
,
1000
0000
0001
0000
,
1000
0000
0100
0000
,
0010
0000
0001
0000
,
0110
0000
0000
0000
,
1001
0000
0000
0000
,
0001
0000
0000
0000
,
0001
0000
0000
0000
,
1000
0000
0001
0000
,
0100
0000
0100
0000
,
0001
0001
0001
0000
,
1000
0000
0000
0000
,
0100
0000
0000
0000
,
0010
0000
0001
0000
,
1001
0000
0000
0000
;
