#TITLE:Shaniqua;
#SUBTITLE:;
#ARTIST:LITTLE-T and ONE TRACK MIKE;
#TITLETRANSLIT:;
#SUBTITLETRANSLIT:;
#ARTISTTRANSLIT:;
#CREDIT:;
#BANNER:Shaniqua-bn.png;
#BACKGROUND:Shaniqua-bg.png;
#LYRICSPATH:;
#CDTITLE:Fome is Dape.png;
#MUSIC:Shaniqua.mp3;
#OFFSET:-0.040;
#SAMPLESTART:61.573;
#SAMPLELENGTH:9.160;
#SELECTABLE:YES;
#BPMS:0.000=104.860;
#STOPS:;
#BGCHANGES:;

//---------------dance-single - ----------------
#NOTES:
     dance-single:
     :
     Hard:
     7:
     0.324,0.417,0.114,0.000,0.102:
0000
0000
0000
0000
,
0000
0000
0000
0000
,
0000
0000
0000
0000
,
0000
0000
0000
0000
,
1000
0000
0001
0100
0000
0001
0100
0000
,
0001
0000
1000
0100
0000
1000
0100
0000
,
1000
0000
0001
0100
0000
1000
0100
0000
,
0001
0000
1000
0010
0000
0000
0000
0000
,
0110
0110
0110
0110
0110
0110
0110
0110
,
0110
0000
0000
0000
0000
0000
0001
1000
,
0100
0000
0000
0010
0000
0000
0001
0000
0100
0000
0001
0000
0100
0000
0001
0000
,
0010
0000
0000
0100
0000
0000
1000
0000
0010
0000
0100
0000
0010
0000
0000
0000
,
1000
1000
1000
0000
0001
0001
0001
0100
,
0010
0000
1000
0010
0100
0001
0010
0000
,
0100
0000
0000
0010
0000
0000
0100
0000
1000
0000
0010
0000
0100
0000
0001
0000
,
0010
0000
0000
0100
0000
0000
0010
0000
0000
0000
0100
0000
0100
0000
1000
0000
,
1000
0001
0001
0100
0100
0001
0001
1000
,
0010
0000
0010
1000
1000
0001
0100
0000
,
0010
0010
0100
0001
0010
0010
0100
1000
,
0100
0100
0100
0000
,
1000
1000
1000
1000
,
0001
0001
0001
0001
,
0010
0010
0010
0010
,
0100
0000
0000
0000
0001
1000
0001
0010
,
0100
1000
0010
1000
0001
1000
0010
0100
,
0000
0000
0100
0100
1000
0001
0100
0000
,
0100
0001
0010
0001
1000
0001
0010
0000
,
0001
0010
0001
0100
0010
1000
0100
0000
,
1000
0010
1000
0100
0010
0001
0100
0000
,
0001
0010
0001
0100
0010
1000
0100
0000
,
1000
0001
0010
0100
1000
0001
1001
0000
,
0001
0000
0010
0000
0001
0100
0000
0010
0000
1000
0000
0100
0000
0000
0000
0000
,
1000
0000
0010
0000
1000
0100
0000
0010
0000
0001
0000
0100
0000
0000
0000
0000
,
0001
0000
0010
0000
0001
0100
0000
0010
0000
1000
0000
0100
0000
0000
0000
0000
,
1000
0100
1000
0000
0001
0000
0010
0000
0001
0000
0100
0000
1000
0100
1000
0000
,
0001
0000
0000
0000
;

//---------------dance-single - ----------------
#NOTES:
     dance-single:
     :
     Medium:
     5:
     0.271,0.298,0.102,0.000,0.006:
0000
0000
0000
0000
,
0000
0000
0000
0000
,
0000
0000
0000
0000
,
0000
0000
0000
0000
,
0010
0000
1000
0001
0010
0000
0100
0000
,
0010
0000
0001
1000
0010
0000
0100
0000
,
0010
0000
1000
0001
0010
0000
0100
0000
,
0010
0000
0000
0000
,
1000
1000
1000
1000
1000
1000
1000
1000
,
1000
0000
0000
0000
0000
0000
0010
0100
,
0001
0000
1000
0000
0001
0100
0010
0000
,
1010
0000
1000
0001
0010
0100
1000
0000
,
1010
0000
1000
0100
0010
0001
0100
0000
,
0110
0000
0001
0001
1000
0100
1000
0000
,
0001
0010
0001
0010
0001
0010
0001
0000
,
1000
0000
0000
0010
0000
0000
1000
0000
0000
0000
0000
0000
0000
0000
0000
0000
,
1000
0010
1000
0000
1000
0100
1000
0000
,
0001
0000
0010
0100
1000
0010
0100
0000
,
0001
0100
1010
1001
,
0110
0010
0010
0000
,
0100
0100
0100
0000
,
1000
1000
0010
0000
,
0100
0100
0001
1000
,
1001
0000
0000
0000
0010
0010
1000
1000
,
0010
0000
1000
1000
0001
1000
0001
1000
,
0000
0000
0001
1000
0010
1000
0001
0000
,
1000
0100
1000
0000
0001
0010
0001
0000
,
0100
0001
1000
0100
1000
0000
0000
0000
,
0100
1000
0001
0100
0001
0000
0000
0000
,
0010
0001
1000
0100
1000
0000
0000
0000
,
0010
0010
0010
0000
0100
0100
0110
0000
,
0001
1000
0010
1000
0001
0010
0000
0000
,
0010
0001
1000
0010
1000
0001
0000
0000
,
0001
1000
0010
1000
0100
0000
0001
1000
,
0100
1000
0010
0000
0100
0000
0001
0000
,
0110
0000
0000
0000
;

//---------------dance-single - ----------------
#NOTES:
     dance-single:
     :
     Easy:
     2:
     0.175,0.258,0.148,0.000,0.000: // measure 1
0000
0000
0000
0000
,  // measure 2
0000
0000
0000
0000
,  // measure 3
0000
0000
0000
0000
,  // measure 4
0000
0000
0000
0000
,  // measure 5
0100
0001
0000
0000
,  // measure 6
0001
0010
0000
0000
,  // measure 7
0100
0010
0000
0000
,  // measure 8
0100
1000
0000
0000
,  // measure 9
0110
1001
1001
0110
,  // measure 10
1001
0000
0100
1000
,  // measure 11
0001
0000
0010
0000
,  // measure 12
0100
0100
1000
0000
,  // measure 13
0010
0000
0010
0010
,  // measure 14
1000
0000
0010
1000
,  // measure 15
0001
0100
0010
0100
,  // measure 16
0001
0000
1000
0000
,  // measure 17
0001
0001
0001
0001
,  // measure 18
1001
0000
0100
0100
,  // measure 19
0010
1000
0001
0010
,  // measure 20
1001
0000
0000
0000
,  // measure 21
0100
1000
0001
0010
,  // measure 22
0100
1000
0001
0010
,  // measure 23
0100
1000
0001
0010
,  // measure 24
1000
0000
0001
0001
,  // measure 25
0100
0001
0001
1000
,  // measure 26
0000
0000
1000
0001
,  // measure 27
1000
0010
0100
0001
,  // measure 28
0010
0110
0010
0000
,  // measure 29
0100
1001
0100
0000
,  // measure 30
0010
0110
0010
0000
,  // measure 31
1000
0000
0001
1000
,  // measure 32
0010
0110
0010
0000
,  // measure 33
0100
1001
0100
0000
,  // measure 34
0010
0110
0010
0000
,  // measure 35
0001
0001
1000
0001
,  // measure 36
1000
0000
0000
0000
;

//---------------dance-single - ----------------
#NOTES:
     dance-single:
     :
     Beginner:
     1:
     0.118,0.138,0.045,0.000,0.000:
0000
0000
0000
0000
,
0000
0000
0000
0000
,
0000
0000
0000
0000
,
0000
0000
0000
0000
,
0010
0000
0000
0000
,
0100
0000
0000
0000
,
0001
0000
0000
0000
,
1000
0000
0000
0000
,
0100
0100
0100
0100
,
0100
0000
0000
0000
,
1000
0000
0001
0000
,
1000
1000
1000
0000
,
0010
0010
0010
0000
,
0100
0000
0000
0000
,
0001
0000
1000
0000
,
0001
0001
0000
0000
,
1000
0000
1000
0000
,
0100
0000
0000
0000
,
1000
0000
0110
0000
,
0110
0000
0000
0000
,
0001
0001
0001
0000
,
1000
1000
1000
0000
,
0010
0010
0010
0000
,
1000
0000
0001
0000
,
0100
0100
0000
0010
,
0010
0000
0000
0000
,
1000
0000
0001
0000
,
1000
1000
1000
0000
,
0100
0100
0100
0000
,
0001
0001
0001
0000
,
0010
0010
0010
0000
,
0001
0001
0001
0000
,
0100
0100
0100
0000
,
1000
1000
1000
0000
,
0010
0000
0110
0110
;
