#TITLE:SPARKING;
#SUBTITLE:;
#ARTIST:Chudah's Corner;
#TITLETRANSLIT:;
#SUBTITLETRANSLIT:;
#ARTISTTRANSLIT:;
#CREDIT:;
#BANNER:SPARKING.png;
#BACKGROUND:SPARKING-bg.png;
#LYRICSPATH:;
#CDTITLE:Tekken 5.png;
#MUSIC:SPARKING.mp3;
#OFFSET:-8.602;
#SAMPLESTART:16.868;
#SAMPLELENGTH:11.980;
#SELECTABLE:YES;
#BPMS:0.000=114.974,18.000=229.948,58.000=114.974,89.500=229.948,154.500=114.974,214.500=229.948,261.500=114.974;
#STOPS:;
#BGCHANGES:-17.602=SPARKING.avi=1.000=1=0=0,
260.500=SPARKING-bg.png=1.000=1=0=0,
99999=-nosongbg-=1.000=0=0=0 // don't automatically add -songbackground-
;

//---------------dance-single - Beginner----------------
#NOTES:
     dance-single:
     Beginner:
     Beginner:
     2:
     0.161,0.213,0.187,0.000,0.000:
0001
0001
1001
0000
,
0000
0000
0000
0000
,
1000
1000
1001
0000
,
0000
0000
0000
0000
,
0010
0010
0110
0000
,
0000
0000
1000
0000
,
0000
0000
0001
0000
,
0000
0000
0000
0000
,
0000
0000
0100
0000
,
0000
0000
0010
0000
,
0000
0000
0000
0000
,
0000
0000
0000
0000
,
0000
0000
1001
0000
,
0000
0000
1001
0000
,
0000
0000
0110
0000
,
1000
0000
0001
0000
,
0010
0000
0100
0100
,
0100
0000
1000
0000
,
0001
0000
1001
0000
,
0010
0010
0010
0000
,
1000
1000
1000
0000
,
0000
0000
0001
0000
,
1000
0000
0000
0000
0000
1001
0000
0000
,
0000
0000
0000
0000
,
0000
0000
0000
0000
0000
0110
0000
0000
,
0000
0000
0000
0000
,
0000
0000
0000
0000
0000
1001
0000
0000
,
0000
0000
0000
0000
,
0000
0000
0000
0000
0000
0110
0000
0000
,
0000
0000
0000
0000
,
0000
0000
0000
0000
0000
1001
0000
0000
,
0000
0000
0000
0000
0000
0001
0000
0000
,
0000
0001
0000
0000
0000
1001
0000
0000
,
0000
0000
0000
0000
0000
1000
0000
0000
,
0000
1000
0000
0000
0000
1001
0000
0000
,
0000
0000
0000
0000
0000
0010
0000
0000
,
0000
0000
0000
0000
0000
1000
0000
0000
,
0000
1000
0000
0000
0000
0001
0000
0000
,
0000
0001
0000
0000
0000
1001
0000
0000
,
0000
0100
0000
0000
0000
1001
0000
0000
,
0000
0010
0000
0000
0000
1000
0000
0000
,
0000
0001
0000
0000
0000
1000
0000
0000
,
0000
0010
0000
0000
0000
0100
0000
0000
,
0000
0001
0000
0000
0000
1000
0000
0000
,
0000
0001
0000
0000
0000
0010
0000
0010
,
0000
0010
0000
0010
0000
0100
0000
0000
,
0000
0100
0000
0000
0000
1000
0000
0000
,
0000
1000
0000
0000
0000
1001
0000
0000
,
0000
0001
0000
0000
0000
0001
0000
0000
,
0000
1000
0000
0000
0000
0010
0000
0000
,
0000
0100
0000
0000
0000
0001
0000
0000
,
0000
1000
0000
0000
0000
1001
0000
0000
,
0000
0110
0000
0000
0000
1000
0000
0000
,
0000
0001
0000
0000
0000
1000
0000
0000
,
0000
1000
0000
0000
0000
1000
0000
0000
,
0000
0000
0000
0000
0000
0001
0000
0000
,
0000
0001
0000
0000
0000
0001
0000
0000
,
0000
0000
0000
0000
0000
0010
0000
0000
,
0000
0010
0000
0000
0000
0010
0000
0000
,
0000
0000
0000
0000
0000
0100
0000
0000
,
0000
0100
0000
0000
0000
0100
0000
0000
,
0000
0000
0000
0000
0000
1000
0000
0000
,
0000
0001
0000
0000
0000
1000
0000
0000
,
0000
0001
0000
0000
0000
1000
0000
0000
,
0000
1000
0000
0000
0000
1000
0000
0000
,
0000
1001
0000
0000
0000
0000
0000
0000
;

//---------------dance-single - Basic----------------
#NOTES:
     dance-single:
     Basic:
     Easy:
     3:
     0.231,0.305,0.196,0.112,0.000: // measure 1
0001
1000
0200
0000
,  // measure 2
0000
0000
0000
0300
,  // measure 3
0010
1000
0002
0000
,  // measure 4
0000
0000
0000
0003
,  // measure 5
1000
0100
0020
0000
,  // measure 6
0000
0000
0130
0000
,  // measure 7
0100
0000
0000
0000
,  // measure 8
0000
0000
1001
0000
,  // measure 9
1001
0000
0010
0000
,  // measure 10
0100
0000
1000
0000
,  // measure 11
1000
0000
0000
0000
,  // measure 12
0001
0000
1000
0000
,  // measure 13
0100
0000
1000
0000
,  // measure 14
0001
0000
1000
0000
,  // measure 15
0001
0000
1001
0000
,  // measure 16
0010
0100
2000
0000
,  // measure 17
3001
0100
0020
0000
,  // measure 18
1030
0000
0001
1000
,  // measure 19
0100
0010
0200
0000
,  // measure 20
1300
0001
0200
0000
,  // measure 21
0310
1000
0002
0000
,  // measure 22
1000
1003
1001
0000
,  // measure 23
0110
0000
0110
0000
0000
1001
0000
0000
,  // measure 24
0000
0000
0000
0000
0000
1000
0000
0000
,  // measure 25
0000
0100
0000
0000
0000
1001
0000
0000
,  // measure 26
0000
0000
0000
0000
0000
0001
0000
0000
,  // measure 27
0000
0010
0000
0000
0000
1001
0000
0000
,  // measure 28
0000
0001
0000
0000
0000
1000
0000
0000
,  // measure 29
0000
0001
0000
0000
0000
0110
0000
0000
,  // measure 30
0000
0010
0000
0000
0000
0100
0000
0000
,  // measure 31
0000
0010
0000
0000
0000
0110
0000
0000
,  // measure 32
0000
0000
0000
0000
0000
1001
0000
0000
,  // measure 33
0000
0000
0000
0000
0000
1001
0000
0000
,  // measure 34
0000
0000
0000
0000
0000
0110
0000
0000
,  // measure 35
0000
0000
0000
0000
0000
0100
0000
0000
,  // measure 36
0000
0100
0000
0000
0000
0100
0000
0000
,  // measure 37
0000
0100
0000
0000
0000
0010
0000
0000
,  // measure 38
0000
0010
0000
0000
0000
0010
0000
0000
,  // measure 39
0000
0110
0000
0000
0000
1000
0000
0000
,  // measure 40
0000
0001
0000
0000
0000
0010
0000
0100
,  // measure 41
0000
0010
0000
0000
0000
0001
0000
1000
,  // measure 42
0000
0001
0000
0100
0000
0001
0000
0000
,  // measure 43
0000
1000
0000
0010
0000
2000
0000
0000
,  // measure 44
0000
3002
0000
0000
0000
0013
0000
0100
,  // measure 45
0000
0010
0000
0100
0000
2000
0000
0002
,  // measure 46
0000
0000
0000
3003
0000
0001
0000
1000
,  // measure 47
0000
0100
0000
0010
0000
0100
0000
1000
,  // measure 48
0000
0001
0000
0001
0000
1000
0000
0100
,  // measure 49
0000
0010
0000
0100
0000
0010
0000
0001
,  // measure 50
0000
0100
0000
0001
0000
1000
0000
0000
,  // measure 51
0000
1001
0000
0001
0000
1001
0000
0000
,  // measure 52
0000
0110
0000
0010
0000
0110
0000
0000
,  // measure 53
0000
0100
0000
1000
0000
0001
0000
0100
,  // measure 54
0000
0001
0000
1000
0000
0100
0000
0000
,  // measure 55
0000
0000
0000
0000
0000
0001
0000
0000
,  // measure 56
0000
0000
0000
0000
0000
1000
0000
0000
,  // measure 57
0000
0000
0000
0000
0000
0001
0000
0000
,  // measure 58
0000
0000
0000
0000
0000
0010
0000
0000
,  // measure 59
0000
0000
0000
0000
0000
0100
0000
0000
,  // measure 60
0000
0000
0000
0000
0000
0001
0000
0000
,  // measure 61
0000
1000
0000
0000
0000
0000
0000
0000
,  // measure 62
0000
0000
0000
0000
0000
0010
0000
0000
,  // measure 63
0000
0100
0000
0000
0000
0010
0000
0000
,  // measure 64
0000
0100
0000
0000
0000
1000
0000
0000
,  // measure 65
0000
0001
0000
0000
0000
0100
0000
0000
,  // measure 66
0000
1001
0000
1001
0000
0000
0000
0000
;

//---------------dance-single - Trick----------------
#NOTES:
     dance-single:
     Trick:
     Medium:
     5:
     0.363,0.519,0.308,0.075,0.005:
0001
1000
0200
0010
,
0000
0010
0000
0310
,
0001
0000
1000
0100
0020
0000
0000
0000
,
0001
0001
0031
0000
,
1001
0110
2002
0000
,
0000
0000
3003
0000
,
0000
0000
0100
1000
,
0100
0000
1000
0000
,
0001
0000
0100
0001
,
0100
0000
0001
0000
,
0010
0000
0100
0000
,
1000
0000
0001
1000
,
0100
0000
1000
0001
,
0100
0000
0001
1000
,
0100
0000
0110
0000
,
0001
1000
0100
0010
0100
0000
1000
0000
,
0001
0100
0001
0000
1001
0000
0110
0000
,
1001
0000
0000
0000
0001
0000
1000
0100
,
1000
0000
0001
0100
0001
0000
1001
0000
,
0010
0100
1000
0100
0010
0000
0011
0000
,
0001
0100
0001
1000
0100
0000
1001
0000
,
0100
1000
0100
0000
0010
0100
0010
0000
,
0001
0010
0001
0000
0000
0011
0000
0000
,
0000
0001
0000
1000
0000
0100
0000
0000
,
0000
0100
0000
0000
0000
1001
0000
0000
,
0000
0100
0000
0001
0000
0010
0000
0000
,
0000
0010
0000
0000
0000
1001
0000
0000
,
0000
1010
0000
0000
0000
0101
0000
0000
,
0000
0011
0000
0000
0000
1001
0000
0000
,
0000
0110
0000
0000
0000
1010
0000
0000
,
0000
1100
0000
0000
0000
0001
0000
1000
,
0000
0100
0000
0000
0000
0010
0000
0100
,
0000
1000
0000
0000
0000
0010
0000
0100
,
0000
0001
0000
0000
0000
0010
0000
0100
,
0000
1000
0000
0000
0000
0001
0000
0000
,
0001
0000
0000
0001
0000
0000
0001
0000
,
0000
0001
0000
0000
0000
1000
0000
0000
,
1000
0000
0000
1000
0000
0000
1000
0000
,
0000
1001
0000
0000
0000
0010
0000
0100
,
1000
0002
0000
0000
0000
1003
0000
0010
,
0100
0020
0000
0000
0000
1030
0000
0100
,
1000
0001
0000
0100
0001
0010
0000
0100
,
1000
0001
0100
0001
1000
1001
0000
0010
,
0100
1100
0000
0100
0001
0101
0000
0001
,
1000
0000
0100
0000
0010
0000
0100
0000
1000
0000
0002
0000
0000
1000
0000
0000
,
2000
0000
0000
3003
0000
0110
0000
0100
,
1000
0001
0100
0001
0000
0011
0000
0001
,
0010
0100
1000
0010
0000
0110
0000
0010
,
1000
0100
0010
0100
0000
1001
0000
0100
,
0000
1001
0000
0010
0000
1001
0000
0100
,
0000
1000
0100
1000
0000
0001
0100
0001
,
0000
0010
0100
1000
0000
0010
0100
0001
,
0000
1000
0000
0001
0000
0000
1000
0001
,
0000
0001
1000
0001
0000
0010
0000
0100
,
0000
1000
0000
0000
0000
0001
0000
0000
,
0000
0001
0000
0000
0000
1000
0000
0100
,
0000
0010
0000
0000
0000
0100
0000
0000
,
0000
0100
0000
0000
0000
1000
0000
0010
,
0000
0100
0000
0000
0000
0010
0000
0000
,
0000
0010
0000
0000
0000
1000
0000
0001
,
0000
0100
0000
0000
0000
0001
0000
0000
,
0000
0001
0000
0000
0000
1000
0000
0000
,
1000
0000
0000
1000
0000
0000
0001
0000
,
0000
0001
0000
0000
0000
1001
0000
0000
,
0100
1000
0100
0010
,
0000
0110
0000
0110
0000
0000
0000
0000
;

//---------------dance-single - Maniac----------------
#NOTES:
     dance-single:
     Maniac:
     Hard:
     8:
     0.484,0.519,0.402,0.075,0.117:
0010
0100
0020
0000
2030
0000
0001
0000
,
0000
0001
0000
3001
,
0010
0100
1000
0001
0200
0000
0001
0000
,
0000
0001
0000
0010
,
0310
1000
0100
1000
,
0001
0000
0000
0000
1000
0001
0000
0000
,
1000
0001
0000
0000
0010
0000
0100
0000
,
0000
1000
0100
0010
,
1000
0000
0110
0110
,
0000
0000
1001
0000
0010
0001
0000
0000
,
0010
0001
0000
0000
0110
0000
0110
0000
,
0000
0000
0100
0000
1000
0100
1000
0100
,
0000
1100
0000
0000
1001
0000
1001
0000
,
0100
0000
0001
1000
0000
1000
0001
0000
,
0001
1000
0000
1000
0001
0010
0100
1000
,
0000
0100
1000
0000
0010
0100
0010
1000
,
0001
0100
0001
0000
1000
0000
0001
0010
,
0100
0000
0000
0000
1001
0000
0000
0000
0001
0000
0000
1001
0000
0000
0100
0000
,
0010
0000
0000
0010
0000
0000
1001
0000
0101
0000
0010
0000
0100
0000
1000
0000
,
0000
0001
1000
0000
0100
0001
0010
0100
,
0010
0001
0100
0001
2000
0000
0100
0000
,
0001
0000
0000
0000
3100
0000
0000
0000
1000
0000
0000
0001
0000
0000
1001
0000
,
1100
0000
0011
0001
0000
0100
0000
0000
,
0000
0001
1000
0001
0000
0010
0100
0000
,
1000
0100
0000
1100
0000
0011
0000
0000
,
0000
0001
0010
0001
0000
0100
0001
0000
,
1000
0100
0000
1100
0000
1001
0000
0000
,
0100
0000
0000
0010
0000
0000
0100
0000
,
0000
0010
1000
0100
0000
0110
0000
0000
,
0011
0000
0000
0110
0000
0000
1001
0000
,
0000
0001
0100
0001
0000
1001
0000
0000
,
0000
0010
0000
0100
0000
1000
0000
0000
,
0001
0000
0000
1000
0000
0100
0000
0000
,
0000
0010
0000
0100
0000
1000
0000
0001
,
0100
0000
0000
0001
0000
0010
0001
0000
,
0100
0001
0000
1000
0001
0000
0100
0001
,
0000
0010
0000
1000
0000
0100
1000
0000
,
0100
0010
0000
0100
1000
0000
0001
0100
,
0000
0000
1001
0000
0000
0000
0000
0000
0000
0000
0100
0000
0000
1000
0000
0000
,
0002
0000
0000
0000
0000
0000
0000
0000
0103
0000
0010
0000
0000
1000
0000
0000
,
0002
0000
0000
0000
0000
0003
0010
0000
0100
0000
1000
0000
0000
0010
0000
0000
,
0010
0000
1001
0000
0000
0100
0000
0000
0100
0000
1001
0000
0000
0000
0001
0000
,
1000
0100
1000
0000
0001
0100
0001
0010
,
0001
0000
0100
0000
0000
0000
1001
0000
0000
0000
0010
0000
0000
0100
0000
0000
,
0010
0000
0001
0000
0000
0100
0000
0000
0001
0000
1000
0000
0000
0001
0000
0000
,
2002
0000
0000
0000
0000
0000
3003
0000
1000
0000
0010
0000
0000
0100
0000
0000
,
0001
0000
0010
0000
0000
0001
0000
0000
0100
0000
0001
0000
0000
0010
0100
0010
,
0100
0000
1000
0000
0001
0000
1000
0000
0100
0010
0100
0000
0000
1000
0000
0000
,
0001
0000
0100
0000
0001
0000
1000
0100
0000
0000
0010
0000
0000
0100
0000
0000
,
0010
0000
0001
0000
0100
0000
1000
0100
0000
0000
0010
0000
0100
0000
0000
0001
,
0000
0000
0010
0000
0100
0000
1000
0000
0001
0000
0100
0001
0000
0100
0000
0000
,
0001
0000
1000
0000
0100
0000
0010
0000
0100
0000
1000
0000
0000
0001
0000
0000
,
1000
0000
0100
0000
1000
0000
0001
1000
0001
0000
0000
0000
0010
0000
0100
0000
,
0000
0000
1000
0000
0100
1000
0001
0000
0000
0000
0101
0000
0000
0000
1001
0000
,
0000
0100
1000
0000
1000
0001
0000
1000
,
0000
0001
1000
0001
0000
0010
0100
0000
,
0100
0000
1001
1100
,
1001
0000
0011
0000
0000
1001
0000
1001
,
0000
0110
1000
0001
,
0110
0000
0011
0000
0000
1000
0001
0000
,
0001
0000
1000
1000
,
0001
0000
1001
0000
0000
0010
0100
0000
,
1000
0100
0000
1000
0001
0000
0100
0001
,
0000
0010
0001
0000
0000
0100
0001
0000
,
1000
0100
0010
0100
,
0000
1001
0000
1001
0000
0000
0000
0000
;
