#TITLE:SOULSEEKER;
#SUBTITLE:(Ronski Speed Mix);
#ARTIST:ronski speed with STONEFACE & TERMINAL;
#TITLETRANSLIT:;
#SUBTITLETRANSLIT:;
#ARTISTTRANSLIT:;
#CREDIT:;
#BANNER:SOULSEEKER (Ronski Speed Mix).png;
#BACKGROUND:SOULSEEKER (Ronski Speed Mix)-bg.png;
#LYRICSPATH:;
#CDTITLE:euphonic.png;
#MUSIC:SOULSEEKER (Ronski Speed Mix).mp3;
#OFFSET:-0.033;
#SAMPLESTART:54.365;
#SAMPLELENGTH:14.320;
#SELECTABLE:YES;
#BPMS:0.000=136.000;
#STOPS:;
#BGCHANGES:;

//---------------dance-single - ----------------
#NOTES:
     dance-single:
     :
     Hard:
     7:
     0.395,0.491,0.171,0.119,0.056:
0000
0000
0000
0000
,
0000
0000
0000
0000
,
0000
0000
0000
0000
,
0000
0000
0000
0000
,
0000
0000
0000
0000
,
0000
0000
0000
0000
,
0000
0000
0000
0000
,
0000
0000
0000
0000
,
2001
3100
1002
0103
,
0010
1000
0010
0000
0100
0001
0100
0000
,
1002
0013
2001
3010
,
0100
0010
0100
1000
0100
0010
0100
0000
,
2001
3100
1002
0103
,
0001
1000
0100
0000
0010
0001
1000
0000
,
0001
0010
0100
1000
0001
0100
0010
0000
,
0000
0000
0000
0000
,
1000
0100
0010
0001
,
0100
0010
1000
0001
,
0010
0001
1000
0100
,
1000
0000
0010
0000
1000
0000
0001
1000
,
0001
0000
0010
0000
0100
0100
1000
0000
,
0010
0000
0100
0000
0001
0001
1000
0000
,
0001
0000
0100
0000
0010
0010
1000
0000
,
0001
0000
0010
0000
0001
0001
1000
0001
,
1000
0000
0001
1000
0100
0000
0010
0000
,
0001
0000
1000
0010
0100
0000
0001
0000
,
1000
0100
0010
0000
0001
0100
0010
0000
,
1000
0010
0100
0001
1000
0000
0100
0010
,
0001
1000
0000
0001
1000
0001
0000
0001
,
0000
0000
0000
1000
0010
0200
0000
0302
,
0000
2003
0000
0000
0000
3000
0000
0000
,
0010
0100
0010
0100
,
0010
1000
0100
0010
0001
0100
0010
0000
,
1000
0100
0010
0001
0100
0010
1000
0000
,
0100
0010
0001
0100
0010
1000
0100
0000
,
0010
0001
0100
0010
1000
0100
0010
0001
,
0000
1000
0010
0100
0000
0001
0010
0100
,
0000
1000
0010
0100
0000
0001
0000
1000
,
0000
0100
0000
0000
0000
0000
0000
0000
,
0001
1000
0001
1000
,
0010
0100
0001
1000
0100
0010
0001
0000
,
0100
0010
1000
0001
0010
0100
1000
0000
,
0001
0010
0100
0000
1000
0010
0100
0000
,
0001
1000
0010
0100
0001
1000
0100
0010
,
0000
0001
0000
1000
0000
0001
0000
0001
,
0000
0100
0000
0010
0000
0100
0000
0100
,
0000
0001
0000
0010
0000
0001
0000
0001
,
0000
1000
0000
1000
0000
0010
0000
1000
,
0000
0011
0000
1001
,
0000
1010
0000
1100
,
0010
0101
0010
1100
,
0001
0000
1001
0000
0010
1000
0010
0000
,
0100
0001
0100
0000
0000
0000
1010
0000
,
0000
0011
0000
1100
,
0000
0101
0000
2001
,
3100
0000
0000
1002
0000
0103
0000
0000
,
1000
0000
0010
0000
1000
0000
0001
0010
0000
0001
0010
0000
0100
0000
1000
0000
,
0010
0000
0100
0000
0001
0000
1000
0100
0000
1000
0010
0000
0000
0000
0010
0000
,
1000
0000
0100
0000
1000
0000
0001
0100
0000
0010
1000
0000
0001
0000
0100
0000
,
0001
0000
0010
0000
0100
0000
1000
0010
0000
0010
1000
0000
0000
0000
1000
0000
,
0001
0000
0100
0000
0010
0000
1000
0100
0000
1000
0001
0000
0100
0000
0010
0000
,
1000
0000
0100
0000
1000
0000
0010
0100
0000
0010
1000
0000
0000
0000
1000
0000
,
0001
0000
0010
0000
0100
0000
1000
0001
0000
0010
0100
0000
1000
0000
0001
0000
,
0100
0010
1000
0001
0000
0001
0000
1000
,
0000
1000
0000
0100
0000
0100
0000
0010
,
0000
0010
0000
0001
0000
0001
0000
1000
,
0000
1000
0000
0010
0000
0010
0000
0100
,
0000
0100
0000
0001
0000
0001
0000
0100
,
1000
0100
0000
1002
0000
0103
0000
0001
,
0010
0001
0000
2001
0000
3100
0000
0010
,
0001
0100
0000
2010
0000
3100
0000
0010
,
0001
0000
0100
0000
0000
0000
0012
0000
0000
0000
0103
0000
0010
0000
1000
0001
,
2000
0000
0000
0000
,
0000
3000
0000
0000
;

//---------------dance-single - ----------------
#NOTES:
     dance-single:
     :
     Medium:
     6:
     0.274,0.322,0.231,0.015,0.037: // measure 1
0000
0000
0000
0000
,  // measure 2
0000
0000
0000
0000
,  // measure 3
0000
0000
0000
0000
,  // measure 4
0000
0000
0000
0000
,  // measure 5
0000
0000
0000
0000
,  // measure 6
0000
0000
0000
0000
,  // measure 7
0000
0000
0000
0000
,  // measure 8
0000
0000
0000
0000
,  // measure 9
1000
1000
0010
1000
,  // measure 10
0001
0001
0100
0001
,  // measure 11
0010
0100
0010
0001
,  // measure 12
1000
0010
0100
0010
,  // measure 13
1000
1000
0100
1000
,  // measure 14
0010
0010
0100
0010
,  // measure 15
0100
0001
0010
0100
,  // measure 16
0000
0000
0000
0000
,  // measure 17
1100
0100
1000
1000
,  // measure 18
1010
0010
1000
0010
,  // measure 19
0101
0001
0100
0010
,  // measure 20
1001
1000
0101
1000
,  // measure 21
0100
1000
1001
0100
,  // measure 22
0010
0001
1001
0100
,  // measure 23
0010
1000
1100
0010
,  // measure 24
0001
0100
0110
0000
,  // measure 25
1000
1001
0000
1001
,  // measure 26
1000
1010
0000
0110
,  // measure 27
0100
0101
0000
0101
,  // measure 28
0010
0011
0000
0011
,  // measure 29
0100
1001
0000
1001
,  // measure 30
1000
1010
0000
1010
,  // measure 31
0100
1001
0000
1001
,  // measure 32
0000
1001
0000
1001
,  // measure 33
1000
0000
0001
0000
1000
0001
1000
0000
,  // measure 34
0001
0000
0100
0000
0010
1000
0010
0000
,  // measure 35
1000
0000
0100
0000
0010
0001
0010
0000
,  // measure 36
0100
1000
0100
0000
1000
0010
1000
0000
,  // measure 37
0001
0000
1000
0000
,  // measure 38
0001
0000
1000
0001
,  // measure 39
1000
0100
1000
0000
,  // measure 40
0001
0100
0010
1000
,  // measure 41
0000
1001
1000
1001
,  // measure 42
0000
0110
1000
1001
,  // measure 43
0000
0011
0000
1001
,  // measure 44
0000
0000
1000
0010
1000
0000
0001
0100
,  // measure 45
0001
1000
0001
1000
,  // measure 46
0001
0010
0001
0010
,  // measure 47
0100
1000
0100
1000
,  // measure 48
0010
0000
0000
0000
,  // measure 49
2000
0000
0000
0000
,  // measure 50
3020
0000
0000
0000
0000
0030
0100
0001
,  // measure 51
0000
1000
0000
0000
0000
0000
0000
0000
,  // measure 52
1000
0001
1000
0000
0100
1000
0100
1000
,  // measure 53
0000
0010
1000
0000
0000
0000
0000
0000
,  // measure 54
0001
0100
0000
0001
0000
0010
0001
1000
,  // measure 55
0000
0000
0000
0000
,  // measure 56
1000
0000
0000
1000
0000
1000
0000
0000
,  // measure 57
0001
0000
0000
0000
0000
0000
0000
0001
0000
0000
0001
0000
0000
0000
0000
0000
,  // measure 58
1000
0000
0000
0000
0000
0000
0000
1000
0000
0000
1000
0000
0000
0000
0000
0000
,  // measure 59
0010
0000
0000
0000
0000
0000
0000
0010
0000
0000
0010
0000
0000
0000
0000
0000
,  // measure 60
0100
0000
0000
0000
0000
0000
0000
0100
0000
0000
0100
0000
0000
0000
0000
0000
,  // measure 61
0001
0000
0000
0000
0000
0000
0000
1000
0000
0010
1000
0000
0000
0000
0000
0000
,  // measure 62
0001
0000
0000
0000
0000
0000
0000
0010
0000
0001
0010
0000
0000
0000
0000
0000
,  // measure 63
0100
0000
0000
0000
0000
0000
0000
1000
0000
0010
1000
0000
0000
0000
0000
0000
,  // measure 64
0001
0000
0000
0000
0000
0000
0000
1000
,  // measure 65
0000
0001
0000
1000
0000
0001
0000
1000
,  // measure 66
0000
0001
0000
1000
0000
0001
0000
1000
,  // measure 67
0000
0001
0000
1000
0000
0001
0000
1000
,  // measure 68
0000
0001
0000
1000
0000
0001
0000
0010
,  // measure 69
0000
0100
0000
0010
0000
0100
0000
0010
,  // measure 70
0000
0100
0000
0010
0000
0100
0000
0010
,  // measure 71
0000
0100
0000
0010
0000
0100
0000
0010
,  // measure 72
0000
0100
0000
0010
0000
0001
1000
0001
,  // measure 73
1000
0000
0000
0000
;

//---------------dance-single - ----------------
#NOTES:
     dance-single:
     :
     Easy:
     4:
     0.204,0.295,0.000,0.030,0.000: // measure 1
0000
0000
0000
0000
,  // measure 2
0000
0000
0000
0000
,  // measure 3
0000
0000
0000
0000
,  // measure 4
0000
0000
0000
0000
,  // measure 5
0000
0000
0000
0000
,  // measure 6
0000
0000
0000
0000
,  // measure 7
0000
0000
0000
0000
,  // measure 8
0000
0000
0000
0000
,  // measure 9
1000
0100
0000
1000
,  // measure 10
0010
1000
0000
0001
,  // measure 11
0100
0001
0000
0100
,  // measure 12
0010
1000
0000
0100
,  // measure 13
1000
0001
0000
0010
,  // measure 14
0001
1000
0000
0010
,  // measure 15
1000
0100
0000
1000
,  // measure 16
0000
1000
0000
1000
,  // measure 17
1000
0000
1000
1000
,  // measure 18
0010
0000
0010
0010
,  // measure 19
0100
0000
0100
0100
,  // measure 20
0001
0000
0001
0001
,  // measure 21
0010
0000
0010
0010
,  // measure 22
0100
0000
0100
0100
,  // measure 23
1000
0000
1000
1000
,  // measure 24
0000
1000
0000
1000
,  // measure 25
0001
1000
0000
0001
,  // measure 26
0100
0010
0000
1000
,  // measure 27
0100
0010
0000
0001
,  // measure 28
0100
0010
0000
1000
,  // measure 29
0001
1000
0000
0010
,  // measure 30
0100
0010
0000
0100
,  // measure 31
0000
0100
0000
0100
,  // measure 32
0000
0100
0000
0100
,  // measure 33
0010
1000
0010
1000
,  // measure 34
0001
0100
0001
0100
,  // measure 35
0010
1000
0010
1000
,  // measure 36
0001
0100
0001
0100
,  // measure 37
0000
0100
0000
0010
,  // measure 38
0000
1000
0000
0100
,  // measure 39
0000
0010
0000
0001
,  // measure 40
0000
0001
0000
0001
,  // measure 41
0010
0001
0010
0002
,  // measure 42
1003
0010
1000
0020
,  // measure 43
1030
0100
1000
0200
,  // measure 44
0310
0001
0010
0002
,  // measure 45
1003
0010
1000
0010
,  // measure 46
1000
0010
0100
0001
,  // measure 47
0010
0001
1000
0001
,  // measure 48
1000
0001
1000
0001
,  // measure 49
0000
0001
0000
0001
,  // measure 50
0000
1000
0000
1000
,  // measure 51
0000
0010
0000
0010
,  // measure 52
0000
0100
0000
0100
,  // measure 53
0000
0001
0000
0010
,  // measure 54
0000
0001
0000
1000
,  // measure 55
0000
0001
0000
1000
,  // measure 56
0000
0000
0000
1000
0000
1000
0000
0000
,  // measure 57
0001
0000
0000
0000
0000
0000
0000
1000
,  // measure 58
0001
0000
0000
0000
0000
0000
0000
1000
,  // measure 59
0010
0000
0000
0000
0000
0000
0000
0100
,  // measure 60
0010
0000
0000
0000
0000
0000
0000
0001
,  // measure 61
1000
0000
0000
0000
0000
0000
0000
0001
,  // measure 62
0010
0000
0000
0000
0000
0000
0000
0100
,  // measure 63
1000
0000
0000
0000
0000
0000
0000
1000
,  // measure 64
0010
0000
0000
0000
,  // measure 65
1000
0001
1000
0001
,  // measure 66
0100
0010
0100
0010
,  // measure 67
1000
0001
1000
0001
,  // measure 68
0010
0100
0010
0100
,  // measure 69
1000
0001
1000
0001
,  // measure 70
0100
0010
0100
0010
,  // measure 71
1000
0001
1000
0001
,  // measure 72
0010
0100
0010
0100
,  // measure 73
1000
0000
0000
0000
;
