#TITLE:SOMEWHERE OVER THE RAINBOW;
#SUBTITLE:-OVERHEAD CHAMPION REMIX-;
#ARTIST:F 50's;
#TITLETRANSLIT:;
#SUBTITLETRANSLIT:;
#ARTISTTRANSLIT:;
#CREDIT:;
#BANNER:SOMEWHERE OVER THE RAINBOW -OVERHEAD CHAMPION REMIX-.png;
#BACKGROUND:SOMEWHERE OVER THE RAINBOW -OVERHEAD CHAMPION REMIX--bg.png;
#LYRICSPATH:;
#CDTITLE:BEAT!.png;
#MUSIC:SOMEWHERE OVER THE RAINBOW -OVERHEAD CHAMPION REMIX-.mp3;
#OFFSET:-6.614;
#SAMPLESTART:88.668;
#SAMPLELENGTH:12.000;
#SELECTABLE:YES;
#BPMS:0.000=146.019;
#STOPS:4.000=1.230
,9.000=1.235
;
#BGCHANGES:0.000=4.avi=1.000=1=0=1,
3.875=blank.PNG=1.000=0=0=1,
4.000=1.avi=1.000=0=0=1,
4.125=4.avi=1.000=0=0=1,
8.875=blank.PNG=1.000=0=0=1,
9.000=1.avi=1.000=0=0=1,
9.125=4.avi=1.000=0=0=1,
26.000=9.avi=1.000=1=0=1,
42.000=10.avi=1.000=0=0=1,
58.000=13.avi=1.000=1=0=1,
74.000=3.avi=1.000=1=0=1,
90.000=2.avi=1.000=1=0=1,
106.000=15.avi=1.000=0=0=1,
122.000=9.avi=1.000=1=0=1,
138.000=11.avi=1.000=0=0=1,
162.000=12.avi=1.000=0=0=1,
178.000=4.avi=1.000=1=0=1,
194.000=11.avi=1.000=0=0=1,
210.000=14.avi=1.000=1=0=1,
226.000=5.avi=1.000=0=0=1,
234.000=6.avi=1.000=0=0=1,
242.000=15.avi=1.000=0=0=1,
244.000=15.avi=1.200=0=0=1,
246.000=15.avi=1.400=0=0=1,
248.000=15.avi=1.600=0=0=1,
250.000=15.avi=1.800=0=0=1,
256.000=15.avi=2.000=0=0=1,
258.000=blank.PNG=1.000=0=0=1,
258.125=SOMEWHERE OVER THE RAINBOW -OVERHEAD CHAMPION REMIX--bg.png=1.000=1=0=1,
99999=-nosongbg-=1.000=0=0=0 // don't automatically add -songbackground-
;

//---------------dance-single - BEGINNER----------------
#NOTES:
     dance-single:
     BEGINNER:
     Beginner:
     1:
     0.181,0.439,0.195,0.000,0.000:
1000
0000
0001
0000
,
1000
0001
0000
1000
,
0000
0010
0100
0000
,
1000
0000
0001
0000
,
0010
0000
0010
0000
,
0010
0000
1001
0000
,
0000
0000
0001
0000
,
1000
0000
1000
0000
,
0001
0001
1000
0000
,
0100
0000
1000
0000
,
0000
0000
0010
0000
,
0100
0000
0001
0000
,
1000
1000
0001
0000
,
0010
0000
0100
0000
,
0000
0000
1000
0000
,
0001
0000
0010
0000
,
0100
0100
1000
0000
,
0001
0000
1000
0000
,
0000
0000
0010
0000
,
0100
0000
0001
0000
,
1000
1000
0001
0000
,
0010
0010
0100
0000
,
0000
0000
1000
1000
,
1000
0000
0001
0001
,
0001
0000
0010
0010
,
0010
0000
0100
0100
,
0100
0000
1000
1000
,
1000
0000
0001
0001
,
0001
0000
1000
1000
,
1000
0000
0001
0001
,
1001
0000
1000
0000
,
0001
0000
1000
0000
,
0001
0000
1000
0000
,
0000
0000
0000
0000
,
0000
0000
0010
0000
,
0100
0000
0010
0000
,
0100
0000
0010
0000
,
0000
0000
0001
0000
,
0000
0000
1000
0000
,
0001
0000
1001
0000
,
1001
0000
0001
0000
,
0000
0000
1000
0000
,
0000
0000
0010
0000
,
0000
0000
0100
0000
,
0000
0000
0001
0000
,
0000
0000
0010
0000
,
0000
0000
0100
0000
,
0000
0000
1000
0000
,
0000
0000
0001
0000
,
1000
0000
0001
0000
,
0000
0000
0010
0000
,
0100
0000
0010
0000
,
0000
0000
1001
0000
,
1001
0000
1001
0000
,
0000
0000
0110
0000
,
0110
0000
0110
0000
,
0000
0000
0001
0000
,
1000
0000
0001
0000
,
1000
0000
0001
0000
,
1000
0000
0001
0000
,
1000
0000
1001
0000
,
1001
0000
1001
0000
,
1001
0000
1001
1001
,
1001
1001
1001
1001
,
1001
1001
1001
0000
;

//---------------dance-single - LIGHT----------------
#NOTES:
     dance-single:
     LIGHT:
     Easy:
     3:
     0.214,0.278,0.093,0.085,0.000:
1000
0000
0001
0001
,
0001
0010
0000
0100
,
0100
0100
1000
0000
,
0001
0001
1000
0000
,
0100
0100
1000
0000
,
0001
0001
0010
0000
,
0000
0000
0001
0000
,
1000
0000
0001
0000
,
0010
0100
1000
0000
,
0001
0000
0200
0000
,
0000
0000
0301
0000
,
0010
0000
0100
1000
,
0001
0000
0100
0000
,
0010
1000
0200
0000
,
0000
0000
1300
0000
,
0001
0000
0010
0100
,
1000
0000
0001
0000
,
0100
0000
0020
0000
,
0000
0000
1030
0000
,
0001
0000
1000
0001
,
1000
0000
1001
0000
,
0001
0010
0200
0000
,
0000
0000
1300
0000
,
0001
0000
1000
0001
,
1000
0000
1001
0000
,
0110
0000
1001
0000
,
0110
0000
0001
0001
,
1000
1000
0001
0001
,
1000
1000
0001
0001
,
1000
1000
0001
0001
,
1001
0000
0001
0000
,
1000
0000
0100
0000
,
0010
0000
0001
0010
,
0001
0000
0001
1000
,
0100
0000
1000
0001
,
1000
0000
0001
0100
,
0001
0000
0001
0010
,
0001
0000
0010
0100
,
0010
0000
0100
1000
,
0100
0000
1001
0000
,
1001
0000
1000
0000
,
1000
0000
1000
0000
,
1000
0000
0001
0000
,
0001
0000
0002
0000
,
0000
0000
0013
0000
,
0010
0000
0010
0000
,
0100
0100
0010
0000
,
0100
0000
2000
0000
,
0000
0000
3001
0000
,
0001
0000
1000
0000
,
1000
0100
0010
0000
,
0001
0000
0200
0000
,
0000
0000
0310
0000
,
1000
0000
0100
0000
,
0010
0100
1000
0000
,
0001
0000
0200
0000
,
0000
0000
0301
0000
,
0001
0000
1000
0000
,
1000
0000
0010
0000
,
0010
0000
0100
0000
,
0100
0000
0001
0000
,
1001
0000
1000
0000
,
1001
0000
0001
0001
,
1000
1000
0001
0001
,
1000
0001
2002
0000
,
0000
0000
3003
0000
;

//---------------dance-single - STANDARD----------------
#NOTES:
     dance-single:
     STANDARD:
     Medium:
     6:
     0.376,0.390,0.212,0.144,0.000:
1000
0000
0001
0000
0010
0001
0010
0000
,
0100
0000
1000
0000
0001
0000
0100
0010
,
1000
0100
0010
0001
,
0100
0001
1000
0000
0100
0000
0010
0000
,
0100
1000
0100
0000
1000
0000
0001
0000
,
0100
0010
0100
0000
0010
0000
0000
0000
,
0000
0000
1000
0001
,
0010
0100
1000
0000
0001
0000
0100
0000
,
0101
0000
1010
0000
1000
0100
0010
0000
,
0100
1000
2002
0000
,
0000
3003
0100
0010
,
0100
1000
0010
0000
0100
0000
0001
0000
,
0010
0100
1000
0000
1001
0000
0110
0000
,
1000
0001
0100
0000
0022
0000
0000
0000
,
0000
0033
1000
0001
,
0010
0100
1000
0000
0001
0000
0100
0000
,
0010
0100
0001
0000
1001
0000
0110
0000
,
1000
0100
1000
0000
2002
0000
0000
0000
,
0000
3003
0100
0001
,
0010
0100
1000
0000
0001
0000
0100
0000
,
0001
0100
0001
0000
1000
0000
0100
0010
,
0001
1000
0200
0000
,
0000
0000
1300
0001
,
1000
0000
0100
0000
0010
0100
1000
0000
,
0001
0100
0010
1000
0000
0100
0010
0000
,
0100
1000
0001
0100
,
0001
1000
0100
0000
0010
0000
0100
0000
,
1000
0001
0100
0000
0001
0000
1000
0000
,
0100
0010
0100
0000
1000
0010
0100
0000
,
0010
0100
0001
0000
0001
0010
0100
0000
,
1001
0000
0000
0000
0100
1000
0100
0000
,
1000
0001
1000
0000
0001
0100
0001
0000
,
0010
0100
1000
0000
2002
0000
0000
0000
,
0000
0000
3003
0000
,
0000
0000
0000
0000
0100
0010
0100
0000
,
1000
0001
1000
0000
0100
0010
0100
1000
,
0001
0100
0020
0000
,
2030
0000
3200
0000
,
0320
0000
0032
0000
,
0000
0000
2003
0000
,
0000
3000
0001
0001
,
0001
0000
0001
0000
0001
0000
0001
1000
,
0001
0010
0100
0100
,
0100
0100
0100
0100
,
1000
0100
1000
0000
0001
0000
0001
0000
,
1000
0000
1000
0000
0010
0000
0100
0010
,
1000
0100
0010
0000
0001
0000
1000
0100
,
1000
1001
0110
1001
,
0100
0010
0100
0000
0010
1000
0100
0000
,
0010
0100
1000
0000
0001
0100
0001
0010
,
0100
1000
0001
0000
1000
0000
0100
0000
,
0010
0100
1000
0001
,
1001
0000
0110
0000
0010
0100
1000
0000
,
0010
0100
0001
0000
1000
0000
0001
1000
,
0100
0000
0010
0000
0100
0000
1000
0010
,
0100
0000
0001
0010
0100
0000
0100
0010
,
0001
0100
0110
0000
,
1000
0000
0011
0000
,
0010
0000
1100
0000
,
1000
0000
1001
0000
,
1000
0000
0110
0000
,
0101
0000
1010
0000
,
0110
0000
0001
0001
,
1000
0000
1000
0000
0001
1000
0001
1000
,
0001
1000
0001
1000
2002
0000
0000
0000
,
0000
0000
3003
0000
;

//---------------dance-single - EXPERT----------------
#NOTES:
     dance-single:
     EXPERT:
     Hard:
     9:
     0.586,0.582,0.068,0.187,0.221: // measure 1
1000
0000
0100
1000
0000
1000
0001
0000
0100
0000
0001
0010
0000
0100
1000
0000
,  // measure 2
0001
0000
0000
0000
1000
0000
0001
0010
0000
0100
1000
0000
0001
0000
0100
0010
,  // measure 3
0000
1000
0100
0000
0010
0000
0000
0000
0100
0000
0010
0100
0000
0100
1000
0000
,  // measure 4
1000
0000
0001
0100
0000
0010
1000
0000
0100
0000
0010
0100
0000
1000
0001
0000
,  // measure 5
0100
0000
0010
0000
1000
0000
0000
0000
0001
0000
1000
0100
0000
0100
1000
0000
,  // measure 6
0100
0000
1000
0000
0001
0000
0000
0000
0100
0000
0010
0000
1000
0000
0100
1000
,  // measure 7
0000
1000
0000
0001
0010
0000
0001
0000
0010
0000
0001
0000
0020
0000
0000
0000
,  // measure 8
0130
1000
0200
0000
0310
0100
1000
0001
,  // measure 9
0100
0010
2000
0000
3100
0010
0200
0000
,  // measure 10
1300
0001
0200
0000
0310
1000
0100
0010
,  // measure 11
0011
0000
1001
0000
0010
0100
2000
0000
,  // measure 12
3001
0100
0020
0000
1030
0100
0010
0100
,  // measure 13
2000
0000
3001
0000
0010
0100
2000
0000
,  // measure 14
3001
0100
0010
1000
0100
0010
0100
1000
,  // measure 15
1001
0000
0110
0000
0100
0010
0002
0000
,  // measure 16
0013
0100
2000
0000
3100
0010
0100
1000
,  // measure 17
0001
1000
1001
0000
0001
0010
0200
0000
,  // measure 18
1300
0001
0200
0000
0310
1000
0100
0010
,  // measure 19
0011
0000
1001
0000
0100
0010
2000
0000
,  // measure 20
3100
0010
0002
0000
0103
0001
1000
0100
,  // measure 21
0010
0100
1000
0000
0010
0100
0001
1000
,  // measure 22
0100
0000
0010
0000
0100
0000
0000
0000
1000
0000
0100
0000
1000
0000
0001
1000
,  // measure 23
0000
0100
0000
0010
0100
1000
0100
1000
0001
0000
0010
0000
0100
0000
0000
0000
,  // measure 24
1000
0010
0100
0000
0010
0100
0001
0010
,  // measure 25
0100
1000
0001
0000
0100
0001
1000
0000
,  // measure 26
0100
0010
0100
0000
1000
0010
0100
0001
,  // measure 27
0010
0001
0100
0001
1000
0100
0010
0000
,  // measure 28
0010
0100
1000
0000
0010
0100
0001
0010
,  // measure 29
0001
0100
0001
1000
0100
0010
0100
1000
,  // measure 30
0001
0100
1000
0100
0001
0010
0100
1000
,  // measure 31
0001
1001
0000
0010
0001
0010
0001
0010
,  // measure 32
0001
0100
0001
0100
0001
1000
0001
1000
,  // measure 33
0100
1000
0100
1000
0001
0000
1000
0100
,  // measure 34
0000
0010
0100
0000
1000
0010
0100
0000
,  // measure 35
0001
0010
0100
0000
1000
0100
1000
0100
,  // measure 36
0010
0100
0010
0100
0010
0001
0010
0001
,  // measure 37
0010
0001
0100
0001
2000
0000
0000
0000
,  // measure 38
3200
0000
0320
0000
,  // measure 39
0032
0000
2000
0000
,  // measure 40
0000
3000
0020
0000
,  // measure 41
0000
0000
0033
0000
0001
0010
1000
0000
,  // measure 42
1000
0010
0001
0000
0001
0100
1000
0100
,  // measure 43
0001
0010
0100
0000
1000
0001
0100
0000
,  // measure 44
0100
0001
0010
0000
0010
0100
1000
0010
,  // measure 45
0100
0001
0010
0000
0100
1000
0001
0000
,  // measure 46
0100
0010
1000
0000
1000
0100
0001
0100
,  // measure 47
1000
0010
0001
0000
0001
0010
1000
0000
,  // measure 48
0100
0010
0100
0000
1000
0001
0010
0001
,  // measure 49
0100
0001
0010
0000
0100
1000
0010
0000
,  // measure 50
0100
0010
0001
0000
0100
0010
1000
0100
,  // measure 51
1000
0001
0100
0000
0001
0010
0100
0000
,  // measure 52
1000
0010
0100
0000
0001
1000
0100
0010
,  // measure 53
0100
1000
0001
0000
0100
0010
1000
0000
,  // measure 54
0100
0010
0100
0000
1000
0001
0100
0001
,  // measure 55
0010
0001
1000
0000
0100
0010
0100
1000
,  // measure 56
0001
0100
0001
0000
0010
0100
1000
0001
,  // measure 57
0010
0000
0000
0000
0100
0000
0000
0000
0100
0000
1000
0001
0000
0001
1000
0000
,  // measure 58
0100
0000
0010
0100
0000
0100
1000
0000
0001
0000
0100
0010
0000
0010
1000
0000
,  // measure 59
0001
0000
0010
0100
0000
0100
0010
0000
0001
0000
0100
0010
0000
0010
1000
0000
,  // measure 60
1000
0000
0100
0010
0000
0010
0001
0000
0100
0000
0001
1000
0000
1000
0100
0000
,  // measure 61
1000
0000
0001
0010
0000
0100
1000
0000
0001
0000
0100
0010
0000
1000
0100
0000
,  // measure 62
0010
0000
0100
1000
0000
0001
0100
0000
0010
0000
1000
0100
0000
0010
0100
0000
,  // measure 63
1000
0000
0001
0100
0000
0010
1000
0000
0100
0000
0010
0000
0100
0000
1000
0000
,  // measure 64
0001
0100
0001
1000
0100
0010
0100
1000
,  // measure 65
0100
1000
0100
1000
0100
1000
0100
1000
0200
0000
0000
0000
0000
0000
0000
0000
,  // measure 66
0000
0300
0000
0000
;
