#TITLE:SO SO ~恋のゴールデン☆ゴール~;
#SUBTITLE:(Myxx-Up Remix);
#ARTIST:MISA;
#TITLETRANSLIT:SO SO ~Koi No Golden Goal~;
#SUBTITLETRANSLIT:(Myxx-Up Remix);
#ARTISTTRANSLIT:MISA;
#CREDIT:jesterline;
#BANNER:SO SO ~Koi No Golden Goal~ (Myxx-Up Remix).png;
#BACKGROUND:SO SO ~Koi No Golden Goal~ (Myxx-Up Remix)-bg.png;
#LYRICSPATH:;
#CDTITLE:SO SO ~Koi No Golden Goal~.png;
#MUSIC:SO SO ~Koi No Golden Goal~ (Myxx-Up Remix).mp3;
#OFFSET:-1.706;
#SAMPLESTART:44.987;
#SAMPLELENGTH:12.000;
#SELECTABLE:YES;
#DISPLAYBPM:144.000;
#BPMS:0.000=144.000;
#STOPS:;
#BGCHANGES:;

//---------------dance-single - ----------------
#NOTES:
     dance-single:
     :
     Hard:
     7:
     0.437,0.440,0.484,0.000,0.033:
0000
0000
0000
0000
,
0000
0000
0000
0000
,
1001
0000
0000
0000
,
0011
0000
0000
0000
,
1010
0000
0000
0000
,
0101
0001
0001
0000
,
0110
0000
0000
0000
,
0101
0000
0000
0000
,
1010
0000
0000
0000
,
1100
0000
0000
0000
,
1000
0010
0100
0000
0001
0010
0100
0000
,
1000
0010
0100
0001
0000
1000
0000
0000
,
0001
1000
0100
0000
1000
0001
0010
0000
,
0001
0010
0100
1000
0000
0001
0000
0000
,
1000
0010
0100
0000
0010
0100
0001
0000
,
1000
0100
1000
0001
0000
1000
0010
0100
,
0001
0000
0001
0000
0010
0100
1000
0010
,
0000
0100
0000
0000
0000
0001
0001
0000
,
1000
0100
0001
0100
1000
0000
0001
0000
,
0001
0100
0010
1000
0000
0001
0000
0000
,
0010
0001
1000
0001
0010
0000
0100
0000
,
1000
0010
0100
0001
0000
1000
0000
0000
,
1000
0001
0010
0000
0100
1000
0010
0000
,
1000
0010
0100
0001
0000
1000
0001
0000
,
1001
1001
1001
1001
,
0000
1000
0010
0100
0001
0100
0010
0000
,
1000
0001
0100
0000
1001
0000
1001
0000
,
0010
1000
0100
0000
0110
0000
0110
0000
,
0001
1000
0100
0000
1100
0000
1100
0000
,
0010
1000
0100
0000
0000
0010
0001
0010
,
0100
1000
0010
0000
1010
0000
1010
0000
,
1000
0001
0010
0000
0011
0000
0011
0000
,
1000
0001
0100
0000
0101
0000
0101
0000
,
0001
1000
0100
0000
0000
1001
1001
0000
,
1010
0000
1010
0000
0001
0010
0001
0000
,
1100
0000
1100
0000
0001
0010
0001
0000
,
0101
0000
0101
0000
1000
0010
0100
0001
,
0000
0100
0001
0000
0000
1000
0100
0000
,
1001
0000
1001
0000
0001
0100
0001
0000
,
0110
0000
0110
0000
0001
0100
0001
0000
,
0011
0000
0000
0000
0011
0000
0000
0000
1000
0000
0010
0000
0100
0000
0001
0100
,
0001
0000
0000
0010
0000
0000
0100
0000
1000
0000
0000
0000
1001
0000
0000
0000
,
0001
1000
0100
0000
1000
0001
0010
0000
,
0001
0100
0001
0000
1000
0000
0010
0000
0100
0000
0000
0000
1001
0000
0000
0000
,
1000
0001
0010
0000
0001
1000
0010
0000
,
1000
0010
1000
0000
0001
0000
0010
0000
0100
0000
0000
0000
1001
0000
0000
0000
,
0001
0010
0100
0000
0010
0100
1000
0000
,
0001
0100
0001
0000
1000
0000
0100
0000
0010
0000
0000
0000
1001
0000
0000
0000
,
0010
1000
0001
0000
1000
0001
0100
0000
,
0001
0010
0001
0000
1000
0000
0010
0000
0100
0000
0000
0000
1001
0000
0000
0000
,
0101
0000
0000
0000
;

//---------------dance-single - ----------------
#NOTES:
     dance-single:
     :
     Medium:
     5:
     0.332,0.440,0.627,0.077,0.000:
0000
0000
0000
0000
,
0000
0000
0000
0000
,
1001
0000
0000
0000
,
0101
0000
0000
0000
,
1010
0000
0000
0000
,
1001
0001
0001
0000
,
0110
0000
0000
0000
,
1010
0000
0000
0000
,
1100
0000
0000
0000
,
1001
0000
0000
0000
,
0001
0001
0001
0000
,
1000
0100
1000
0000
0001
0000
0000
0000
,
1000
1000
1000
0000
,
0010
0100
0010
0000
0100
0000
0000
0000
,
0001
0100
0001
0000
,
1000
0100
1000
0000
,
1000
0000
0100
0000
0001
0100
1000
0000
,
1001
0000
0000
0000
,
1000
0100
1000
0000
0001
0000
0000
0000
,
1000
0010
0100
0000
,
0001
0100
0001
0000
1000
0000
0000
0000
,
0001
0010
0100
0000
,
0010
0001
0010
0000
0001
0000
0100
0000
,
0010
1000
0001
0000
,
2002
0000
0000
3003
,
0000
1000
0010
0000
0100
0000
0001
0000
,
1100
1100
0001
0001
,
1010
1010
0001
0001
,
0011
0011
1000
1000
,
0002
0000
0000
1003
,
1010
1010
0100
0100
,
0011
0011
0100
0100
,
0101
0101
0001
0010
,
0200
0000
0000
0310
,
1001
1001
0010
0010
,
1001
1001
0100
0100
,
0110
0110
0001
1000
,
0200
0000
0000
0300
,
0110
0110
1000
1000
,
0110
0110
0001
0001
,
0011
0011
1000
0010
,
0200
0000
0002
0303
,
1100
0101
1100
0101
,
0001
0010
0100
0000
,
0011
1010
0011
1010
,
0001
0010
0100
0000
,
1010
0101
1010
0101
,
0011
1100
0011
0000
,
1100
0101
1100
0101
,
1010
0011
1010
0000
,
1001
0000
0000
0000
;

//---------------dance-single - ----------------
#NOTES:
     dance-single:
     :
     Easy:
     3:
     0.264,0.303,0.352,0.011,0.000:
0000
0000
0000
0000
,
0000
0000
0000
0000
,
1001
0000
0000
0000
,
0110
0000
0000
0000
,
1001
0000
0000
0000
,
0110
0010
0010
0000
,
1001
0000
0000
0000
,
0110
0000
0000
0000
,
1001
0000
0000
0000
,
0110
0000
0000
0000
,
0001
0001
0001
0000
,
1000
0010
1000
0000
,
0001
0001
0001
0000
,
1000
0100
1000
0000
,
0010
1000
0010
0100
,
0010
1000
0001
0000
,
1000
0100
0010
0001
,
1000
0000
0000
0000
0000
1000
1000
0000
,
0001
0010
0001
0001
,
1000
0010
1000
0000
,
1000
0010
1000
1000
,
0001
0010
0001
0000
,
1000
0100
1000
0000
,
0001
0100
0001
0000
,
1000
1000
1000
1000
,
0000
0001
0100
0010
,
1001
1001
0000
0000
,
0110
0110
0000
0000
,
1001
1001
1000
0001
,
1000
0000
0000
0000
0000
1000
1000
0000
,
1001
1001
0000
0000
,
0110
0110
0000
0000
,
1001
1001
0001
1000
,
0001
0000
0000
0000
0000
0001
0001
0000
,
0001
0001
1001
1001
,
0000
0000
0110
0110
,
0000
0000
1001
1001
,
0000
0000
0000
0000
0000
1000
1000
0000
,
0001
0001
0110
0110
,
0000
0000
1001
1001
,
0000
0000
1000
0010
,
0200
0000
0301
1001
,
1000
1000
0001
0000
,
1000
1000
1000
0000
1000
0000
0000
0000
,
0010
0010
0100
0000
,
0010
0010
0010
0000
0010
0000
0000
0000
,
1000
1000
0010
0000
,
1000
1000
1000
0000
1000
0000
0000
0000
,
0001
0001
0100
0000
,
0001
0001
0001
0000
0001
0000
0000
0000
,
1001
0000
0000
0000
;

//---------------dance-single - ----------------
#NOTES:
     dance-single:
     :
     Beginner:
     1:
     0.178,0.275,0.330,0.011,0.000:
0000
0000
0000
0000
,
0000
0000
0000
0000
,
1001
0000
0000
0000
,
1001
0000
0000
0000
,
1001
0000
0000
0000
,
1001
0000
0000
0000
,
0110
0000
0000
0000
,
0110
0000
0000
0000
,
0110
0000
0000
0000
,
0110
0000
0000
0000
,
1000
1000
1000
0000
,
0001
0000
0000
0000
,
0010
0010
0010
0000
,
0100
0000
0000
0000
,
1000
0000
1000
0000
,
0001
0000
0001
0000
,
0010
0010
0010
0000
,
0100
0000
0000
0000
,
1000
1000
1000
0000
,
0001
0000
0000
0000
,
0010
0010
0010
0000
,
0100
0000
0000
0000
,
1000
0000
0010
0000
,
1000
0000
0010
0000
,
0200
0000
0000
0300
,
0000
0000
0000
0000
,
1001
1001
0000
0000
,
1001
1001
0000
0000
,
1001
1001
0000
0000
,
0000
0000
0000
0000
,
0110
0110
0000
0000
,
0110
0110
0000
0000
,
0110
0110
0000
0000
,
0000
0000
0000
0000
,
1000
0000
1001
1001
,
0000
0000
1001
1001
,
0000
0000
1001
1001
,
0000
0000
0000
0000
,
1001
0000
0000
0000
,
0110
0000
0000
0000
,
1000
0000
0001
0000
,
1001
0000
0000
0000
,
1000
0000
1000
0000
,
1000
1000
1000
0000
,
0001
0000
0001
0000
,
0001
0001
0001
0000
,
0010
0000
0010
0000
,
0010
0010
0010
0000
,
0100
0000
0100
0000
,
0100
0100
0100
0000
,
1001
0000
0000
0000
;
