#TITLE:SNAKE EATER;
#SUBTITLE:(abstracted camouflage);
#ARTIST:日比野則彦 feat. Cynthia Harrell;
#TITLETRANSLIT:;
#SUBTITLETRANSLIT:;
#ARTISTTRANSLIT:NORIHIKO HIBINO feat. Cynthia Harrell;
#CREDIT:;
#BANNER:SNAKE EATER (abstracted camouflage).png;
#BACKGROUND:SNAKE EATER (abstracted camouflage)-bg.png;
#LYRICSPATH:;
#CDTITLE:Metal Gear Solid 3 Snake Eater - The First Bite.png;
#MUSIC:SNAKE EATER (abstracted camouflage).mp3;
#OFFSET:-5.420;
#SAMPLESTART:44.428;
#SAMPLELENGTH:12.000;
#SELECTABLE:YES;
#BPMS:0.000=89.992;
#STOPS:;
#BGCHANGES:;

//---------------dance-single - Beginner----------------
#NOTES:
     dance-single:
     Beginner:
     Beginner:
     1:
     0.092,0.160,0.077,0.000,0.000:
0001
0000
0000
0000
,
1000
0000
0000
0000
,
0010
0000
0000
0000
,
0100
0000
0000
0000
,
1001
0000
0000
0000
,
0001
0000
0000
0000
,
1000
0000
0000
0000
,
0100
0000
0000
0000
,
1000
0000
0000
0000
,
0001
0000
0000
0000
,
0010
0000
0000
0000
,
1001
0000
0000
0000
,
0001
0000
1000
0000
,
0001
0000
1000
0000
,
0001
0000
1000
0000
,
1001
0001
0001
0000
,
1001
1000
1000
0000
,
1001
0010
0010
0000
,
1001
0100
0100
0000
,
0001
0000
1000
0000
,
0010
0000
0100
0000
,
0001
0000
1000
0000
,
0001
0000
0010
0000
,
0100
0000
1000
0000
,
0001
0000
0010
0000
,
1000
0000
0001
0000
,
1000
0000
0010
0000
,
0100
0000
1000
0000
,
0001
0000
0001
0000
,
1001
0000
0000
0000
;

//---------------dance-single - Basic----------------
#NOTES:
     dance-single:
     Basic:
     Easy:
     2:
     0.168,0.227,0.111,0.022,0.000: // measure 1
0001
1000
0000
0000
,  // measure 2
0010
0100
0000
0000
,  // measure 3
1000
0001
0000
0000
,  // measure 4
0010
0001
0000
0000
,  // measure 5
0001
1000
0000
0000
,  // measure 6
0100
0010
0000
0000
,  // measure 7
0010
1000
0000
0000
,  // measure 8
0100
0001
0000
0000
,  // measure 9
0001
1000
0000
0000
,  // measure 10
1000
0100
0000
0000
,  // measure 11
0010
0100
0000
0000
,  // measure 12
1000
0010
0000
0000
,  // measure 13
1000
0001
0001
1000
,  // measure 14
1000
0001
0001
1000
,  // measure 15
1000
0100
0100
0100
,  // measure 16
1001
0100
1001
0010
,  // measure 17
1001
0100
1001
0010
,  // measure 18
1000
0001
1000
0001
,  // measure 19
1000
0100
1000
0001
,  // measure 20
0010
0001
1000
0100
,  // measure 21
1000
0001
0100
0010
,  // measure 22
1000
0001
1000
0001
,  // measure 23
0010
0100
1000
0001
,  // measure 24
1001
0010
1001
0100
,  // measure 25
1001
1000
1001
0001
,  // measure 26
1001
0010
1001
0100
,  // measure 27
1000
0001
0010
0100
,  // measure 28
1000
0001
1000
0001
,  // measure 29
0010
0100
1000
0001
,  // measure 30
2000
0000
0000
0000
,  // measure 31
0000
0002
0000
0000
,  // measure 32
0000
0000
3003
0000
;

//---------------dance-single - Trick----------------
#NOTES:
     dance-single:
     Trick:
     Medium:
     4:
     0.201,0.192,0.044,0.055,0.000:
0001
0000
1000
0100
0000
0000
0001
0000
,
0010
0000
0100
1000
0000
0000
1001
0000
,
0001
0000
0100
0010
0000
0000
1000
0000
,
0001
0000
0010
0100
0000
0000
1001
0000
,
0100
0000
0001
0000
,
1000
0000
0001
1000
0000
0000
0100
0000
,
0010
0000
0100
0000
,
1000
0000
0001
1000
0000
0000
1001
0000
,
0010
0100
0000
1000
,
0001
0000
0100
0010
0000
0000
1000
0000
,
0001
0010
0000
0100
,
1000
0000
0010
0100
0000
0000
0001
0000
,
1000
0001
0001
1000
,
1000
0010
0010
0100
,
0100
0001
0001
1000
,
1001
0000
0001
1000
0000
1000
0001
0000
,
0010
0000
0100
1000
0000
0000
0001
0000
,
0100
0000
0010
1000
0000
0000
0100
0000
,
1000
0000
0001
1000
0000
0100
2000
0000
,
3001
0000
0010
0100
0000
0000
1000
0000
,
0001
0000
0100
0010
0000
0000
1000
0000
,
0001
0000
0010
0001
0000
0001
0010
0000
,
0100
0000
1000
0001
0000
1000
0200
0000
,
1300
0000
0001
0100
0000
0000
0001
0000
,
0010
0000
0100
1000
0000
0000
0010
0000
,
0100
0000
0001
0010
0000
0000
0100
0000
,
1000
0000
0001
1000
0000
0100
2000
0000
,
3001
0000
0010
0100
0000
0000
1000
0000
,
0001
1000
0100
0010
,
0100
2000
0000
0000
0000
0000
0000
0000
,
0000
0002
0000
0000
,
0000
0000
3003
0000
;

//---------------dance-single - Maniac----------------
#NOTES:
     dance-single:
     Maniac:
     Hard:
     7:
     0.311,0.261,0.033,0.055,0.116:
1001
0000
0000
0000
0000
0000
0000
0000
0100
0000
0000
1000
0100
0000
0000
0000
1000
0000
0000
0000
0000
0000
0000
0000
0001
0000
0000
0000
0000
0000
0000
0000
,
0010
0000
0000
0000
0000
0000
0000
0000
0100
0000
0000
1000
0001
0000
0000
0000
0100
0000
0000
0000
0000
0000
0000
0000
0010
0000
0000
0000
0000
0000
0000
0000
,
1000
0000
0000
0000
0000
0000
0000
0000
0001
0000
0000
1000
0100
0000
0000
0000
0010
0000
0000
0000
0000
0000
0000
0000
0100
0000
0000
0000
0000
0000
0000
0000
,
1000
0000
0000
0000
0000
0000
0000
0000
0001
0000
0000
0100
0010
0000
0000
0000
1000
0000
0000
0000
0000
0000
0000
0000
0100
0000
0000
0000
0000
0000
0000
0000
,
1001
0000
0000
0000
0000
0000
0000
0000
0100
0000
0000
0000
1000
0000
0000
0000
0000
0000
0000
0000
0001
0000
0000
0000
0100
0000
0000
0000
0001
0000
0000
0010
,
0001
0000
1000
0100
0000
1000
0001
0100
,
0001
0000
0000
0000
0000
0000
0000
0000
1000
0000
0000
0000
0100
0000
0000
0000
0000
0000
0000
0000
0010
0000
0000
0000
0100
0000
0000
1000
0100
0000
0000
0000
,
1000
0000
0001
0100
0000
0010
1000
0100
,
0010
0000
0000
0000
0000
0000
0000
0000
0100
0000
0000
0000
1000
0000
0000
0000
0000
0000
0000
0000
0001
0000
0000
0000
0100
0000
0000
0010
0100
0000
0000
0000
,
0010
0000
1000
0100
0000
0010
0001
0010
,
0100
0000
0000
0000
0000
0000
0000
0000
1000
0000
0000
0000
0001
0000
0000
0000
0000
0000
0000
0000
0100
0000
0000
0000
0010
0000
0000
1000
0100
0000
0000
0000
,
0010
0000
0001
0100
0000
0001
1000
0100
,
1000
0000
0001
0100
0001
0000
1000
0100
,
1000
0000
1000
0010
1000
0000
0001
0010
,
0001
0000
0001
0100
0001
0000
0001
1000
,
1100
0000
0000
0000
0000
0000
0000
0000
1000
0000
0000
0000
0001
0000
0000
0000
0000
0000
0000
0000
0100
0000
0000
0000
0001
0000
0000
1000
0001
0000
0000
0000
,
0010
0000
0000
0000
0000
0000
0000
0000
0100
0000
0000
0000
1000
0000
0000
0000
0000
0000
0000
0000
0010
0000
0000
0000
0100
0000
0000
0010
1000
0000
0000
0000
,
0100
0000
0000
0000
0000
0000
0000
0000
0010
0000
0000
0000
0001
0000
0000
0000
0000
0000
0000
0000
0100
0000
0000
0000
0001
0000
0000
0010
0100
0000
0000
0000
,
1000
0000
0001
0100
0000
0001
2000
0000
,
3100
0000
0000
0000
0000
0000
0000
0000
0010
0000
0000
0000
0100
0000
0000
0000
0000
0000
0000
0000
1000
0000
0000
0000
0001
0000
0000
0100
0010
0000
0000
0000
,
1000
0000
0000
0000
0000
0000
0000
0000
0100
0000
0000
0000
0010
0000
0000
0000
0000
0000
0000
0000
0010
0000
0000
0000
0100
0000
0000
1000
0001
0000
0000
0000
,
0100
0000
0000
0000
0000
0000
0000
0000
0001
0000
0000
0000
1000
0000
0000
0000
0000
0000
0000
0000
0100
0000
0000
0000
0010
0000
0000
0100
1000
0000
0000
0000
,
0001
0000
0100
0010
0000
1000
0200
0000
,
1300
0000
0000
0000
0000
0000
0000
0000
0001
0000
0000
0000
0010
0000
0000
0000
0000
0000
0000
0000
0100
0000
0000
0000
0010
0000
0000
0100
1000
0000
0000
0000
,
0001
0000
0100
0010
0000
1000
0100
0010
,
0100
0000
0000
0000
0000
0000
0000
0000
1000
0000
0000
0000
0001
0000
0000
0000
0000
0000
0000
0000
0100
0000
0000
0000
0001
0000
0000
0010
0100
0000
0000
0000
,
1000
0000
0001
1000
0000
0100
0020
0000
,
0130
0000
0000
0000
0000
0000
0000
0000
1000
0000
0000
0000
0001
0000
0000
0000
0000
0000
0000
0000
1000
0000
0000
0000
0100
0000
0000
1000
0100
0000
0000
0000
,
1000
0000
0001
0010
0000
0100
1000
0000
,
0001
0000
0000
0000
0000
0000
0000
0000
0000
2000
0000
0000
0000
0000
0000
0000
0000
0000
0000
0000
0000
0000
0000
0000
0000
0000
0000
0000
0000
0000
0000
0000
0001
0000
0000
0000
0000
0000
0000
0001
0000
0000
0000
0000
0000
0000
0000
0000
,
0001
0000
0000
0002
0000
0000
0000
0000
0000
0000
0000
0000
0000
0000
0000
0000
,
0000
0000
3003
0000
;
