#TITLE:SHE BLINDED ME WITH SCIENCE;
#SUBTITLE:;
#ARTIST:FADEINN;
#TITLETRANSLIT:;
#SUBTITLETRANSLIT:;
#ARTISTTRANSLIT:;
#CREDIT:;
#BANNER:SHE BLINDED ME WITH SCIENCE.png;
#BACKGROUND:SHE BLINDED ME WITH SCIENCE-bg.png;
#LYRICSPATH:;
#CDTITLE:cd.png;
#MUSIC:SHE BLINDED ME WITH SCIENCE.mp3;
#OFFSET:-3.391;
#SAMPLESTART:34.863;
#SAMPLELENGTH:12.000;
#SELECTABLE:YES;
#BPMS:0.000=144.844;
#STOPS:;
#BGCHANGES:;

//---------------dance-single - Easy----------------
#NOTES:
     dance-single:
     Easy:
     Easy:
     3:
     0.217,0.259,0.100,0.044,0.000:
0010
0000
0000
0000
,
0001
0000
0000
0000
,
0100
0000
0000
0000
,
1000
0000
0000
0000
,
0010
0100
0100
0000
,
0100
0001
0001
0000
,
0001
1000
1000
0000
,
1000
0100
0100
0000
,
0001
0010
0010
0000
,
0100
1000
1000
0000
,
1001
0000
0000
0000
,
1001
0000
0000
0000
,
0001
0000
1000
0000
,
0010
0000
0100
0000
,
0001
1000
0001
0000
,
0100
0000
0010
0000
,
1000
0001
1000
0000
,
0010
0000
1000
0000
,
0010
0100
0010
0000
,
0100
0000
0001
0000
,
1001
0000
1000
0000
,
0100
0000
0100
0000
,
0110
0000
0010
0000
,
0001
0000
0001
0000
,
1000
0001
1001
0000
,
0001
1000
1001
0000
,
0100
0100
0100
0000
,
0010
0010
0010
0000
,
0001
1000
1000
0000
,
0010
1000
1000
0000
,
0100
1000
1000
0000
,
1001
1000
1000
0000
,
1000
0001
0001
0000
,
0100
0001
0001
0000
,
0010
0001
0001
0000
,
1001
0001
0001
0000
,
1000
0000
0100
0000
,
0010
0000
0001
0000
,
1000
0001
1000
0000
,
0001
0000
1000
0001
,
2000
0000
0000
0000
,
3001
0000
0010
0100
,
0020
0000
0000
0000
,
0130
0000
0010
0010
,
0010
0000
0100
0000
,
0001
0000
1000
0000
,
0010
0100
0010
0000
,
0100
0000
0010
0100
,
0020
0000
0000
0000
,
0130
0000
0001
1000
,
0002
0000
0000
0000
,
1003
0000
1000
0001
,
1001
0000
0000
0000
;

//---------------dance-single - Medium----------------
#NOTES:
     dance-single:
     Medium:
     Medium:
     6:
     0.411,0.374,0.332,0.199,0.000: // measure 1
1001
0000
0000
0000
,  // measure 2
0110
0000
0000
0000
,  // measure 3
1001
0000
0000
0000
,  // measure 4
0110
0000
0000
1001
,  // measure 5
0010
0000
0000
0110
0000
0100
0001
0100
,  // measure 6
0010
0000
0000
1010
0000
0010
0100
0010
,  // measure 7
1000
0000
0000
0011
0000
0001
0010
0001
,  // measure 8
1000
0000
0000
1100
0000
0000
0011
0000
,  // measure 9
1000
0000
0000
1010
0000
1000
0100
1000
,  // measure 10
0010
0000
0000
0101
0000
0001
1000
0001
,  // measure 11
0100
0000
0000
0000
,  // measure 12
1001
0000
0000
1001
0000
0000
0000
0000
,  // measure 13
2000
0100
3001
0100
,  // measure 14
1000
0000
0100
0000
1000
0001
0100
0000
,  // measure 15
0002
0100
0013
1000
,  // measure 16
0100
0000
1000
0000
0010
0100
0001
0000
,  // measure 17
0200
0001
1300
0010
,  // measure 18
1000
0000
0001
0000
0100
0001
1000
0000
,  // measure 19
0020
1000
0031
0100
,  // measure 20
0010
1000
0001
0100
,  // measure 21
0010
1000
0001
0000
0010
1000
0001
0000
,  // measure 22
0100
0001
1000
0000
0100
0001
1000
0000
,  // measure 23
0010
0100
0001
0000
0010
0100
0001
0000
,  // measure 24
0100
0010
1000
0000
0100
0010
1000
0000
,  // measure 25
0010
1010
0011
0000
,  // measure 26
0100
1100
0101
0000
,  // measure 27
1000
0100
0001
0100
1000
0000
0100
0000
,  // measure 28
1000
0100
0001
0100
1000
0000
0010
0000
,  // measure 29
1000
0000
0000
1010
0000
0001
1000
0010
,  // measure 30
1000
0000
0000
1100
0000
0001
0100
0010
,  // measure 31
0100
0000
0000
0011
0000
1000
0100
0010
,  // measure 32
0100
0000
0000
0101
0000
0000
1001
0000
,  // measure 33
0010
0000
0000
1001
0000
0010
0001
0100
,  // measure 34
0010
0000
0000
0110
0000
1000
0010
0100
,  // measure 35
0001
0000
0000
1001
0000
0100
0010
1000
,  // measure 36
0100
0000
0000
0110
0000
0000
1001
0000
,  // measure 37
0002
1000
0103
0001
,  // measure 38
1000
0000
0010
0100
0001
0000
0001
0100
,  // measure 39
0000
0010
0010
0100
0100
0000
0010
0100
,  // measure 40
0000
0010
0000
0000
2000
0000
3020
0000
,  // measure 41
0230
0000
0000
0000
0000
0000
0000
0310
,  // measure 42
0000
0001
0002
0203
,  // measure 43
0320
0000
0000
0000
0000
0000
0000
0130
,  // measure 44
0100
0000
0010
0000
0100
0010
0100
0000
,  // measure 45
0020
1000
0130
1000
,  // measure 46
0001
0000
1000
0001
0010
0000
0010
0001
,  // measure 47
0000
0001
0001
1000
1000
0000
0001
1000
,  // measure 48
0000
0001
0000
0000
2000
0000
3002
0000
,  // measure 49
0023
0000
0000
0000
0000
0000
0000
0031
,  // measure 50
0000
1000
0002
2003
,  // measure 51
3020
0000
0000
0000
0000
0000
0000
0130
,  // measure 52
0100
0000
0010
1000
0001
0000
0110
0000
,  // measure 53
1001
0000
0000
0000
;

//---------------dance-single - Hard----------------
#NOTES:
     dance-single:
     Hard:
     Hard:
     8:
     0.555,0.576,0.576,0.221,0.166:
0010
0000
0000
0100
0000
0000
0010
0000
0000
0000
0100
0000
0010
0000
1000
0000
,
0010
0000
0000
0100
0000
0000
0010
0000
0000
0000
1000
0000
0100
0000
0001
0000
,
0100
0000
0000
0010
0000
0000
0100
0000
0000
0000
0001
0000
1000
0000
0010
0000
,
1000
0000
0000
0001
0000
0000
1000
0000
0000
0000
0000
0000
0000
0000
0000
0000
,
1010
0000
0000
1100
0000
0000
0001
0000
0000
0000
1000
0000
0001
0000
0010
0000
,
1100
0000
0000
1010
0000
0000
1000
0000
0000
0000
0001
0000
1000
0000
0100
0000
,
0011
0000
0000
1001
0000
0000
0100
0000
0000
0000
0001
0000
1000
0000
0010
0000
,
0101
0000
0000
0011
0000
0000
1000
0000
0000
0000
0000
0000
1001
0000
0000
0000
,
0110
0000
0000
1010
0000
0000
0001
0000
0000
0000
1000
0000
0100
0000
0010
0000
,
1001
0000
0000
0011
0000
0000
0100
0000
0000
0000
0010
0000
1000
0000
0001
0000
,
0110
0000
0000
0110
0000
0000
0110
0000
0000
0000
0010
0000
0100
0000
0010
0000
,
0100
0000
0000
0100
0000
0000
0100
0000
0000
0000
0000
0000
0000
0000
0000
0000
,
0002
0000
0013
0000
0100
1000
0010
0000
,
1000
0000
0001
0000
0010
0100
0010
0001
,
2000
0000
3010
0000
0100
0001
1000
0000
,
0001
0000
0010
0000
0100
1000
0001
1000
,
0200
0000
1300
0000
0001
0100
0010
0000
,
0100
0000
0010
0000
0100
0001
1000
0001
,
0020
0000
0031
0000
1000
0100
0010
0000
,
0001
1000
0010
1000
,
0100
1000
0100
0010
0100
1000
1000
0000
,
0010
0001
1000
0001
0010
0001
0001
0000
,
0010
0001
0010
0100
0010
0001
0001
0000
,
0100
0000
0010
0000
1000
0000
0010
0000
0100
0000
0001
0000
0001
0000
1000
0100
,
1000
0000
0000
0000
1001
0000
0000
0000
0101
0000
0000
0000
0000
0000
0001
0010
,
0001
1100
1010
0000
,
1000
0010
0000
1000
0010
0000
0100
0001
0000
0100
0001
0000
0100
0000
0000
0000
,
0001
0010
0000
0100
1000
0000
0010
0100
0000
0001
1000
0000
0010
0000
0000
0000
,
1100
0000
0000
1010
0000
0000
1001
0000
0000
0000
0001
0000
1000
0000
0100
0000
,
0011
0000
0000
0101
0000
0000
1001
0000
0000
0000
1000
0000
0001
0000
0100
0000
,
1010
0000
0000
0011
0000
0000
0110
0000
0000
0000
0010
0000
0100
0000
0001
0000
,
1010
0000
0000
0011
0000
0000
0110
0000
0000
0000
0000
0000
1001
0000
0000
0000
,
0110
0000
0000
0011
0000
0000
1100
0000
0000
0000
0010
0000
1000
0000
0001
0000
,
0110
0000
0000
1010
0000
0000
0101
0000
0000
0000
0001
0000
0100
0000
0010
0000
,
1001
0000
0000
1010
0000
0000
1100
0000
0000
0000
1000
0000
0010
0000
0100
0000
,
1001
0000
0000
0101
0000
0000
0011
0000
0000
0000
0000
0000
1001
0000
0000
0000
,
0200
0000
0310
0000
1000
0010
0100
0000
,
0002
0000
0103
0000
0001
0000
1000
0100
,
0000
1000
0100
0001
0100
0000
0001
0100
,
0000
0001
0000
0000
2100
0000
3002
0000
,
0023
0000
0001
0000
0001
0000
0000
0031
,
0001
0100
0012
2003
,
3200
0000
1000
0000
1000
0000
0000
1300
,
1000
0000
1000
0000
0010
0010
0100
0000
,
0002
0000
0103
0000
0010
1000
0100
0000
,
2000
0000
3010
0000
0100
0000
0001
0100
,
0000
0010
1000
0010
0100
0000
0001
0010
,
0000
0001
0000
0000
0201
0000
0320
0000
,
2030
0000
0100
0000
0010
0000
0000
3100
,
0100
1000
1020
0230
,
0302
0000
0010
0000
0100
0000
0000
0013
,
0010
0001
0010
0000
0001
0000
1100
0000
,
1001
0000
0000
0000
;
