#TITLE:SELF ESTEEM;
#SUBTITLE:(Skazi and Irritante Remix);
#ARTIST:THE OFFSPRING;
#TITLETRANSLIT:;
#SUBTITLETRANSLIT:;
#ARTISTTRANSLIT:;
#CREDIT:;
#BANNER:SELF ESTEEM (Skazi and Irritante Remix).png;
#BACKGROUND:SELF ESTEEM (Skazi and Irritante Remix)-bg.png;
#LYRICSPATH:;
#CDTITLE:Psychedelic Dream.png;
#MUSIC:SELF ESTEEM (Skazi and Irritante Remix).mp3;
#OFFSET:-6.842;
#SAMPLESTART:54.173;
#SAMPLELENGTH:12.000;
#SELECTABLE:YES;
#BPMS:0.000=141.944;
#STOPS:;
#BGCHANGES:;

//---------------dance-single - MANIAC----------------
#NOTES:
     dance-single:
     MANIAC:
     Hard:
     7:
     0.488,0.493,0.260,0.028,0.107:
1000
0000
0010
0000
0100
0001
0001
0000
,
0001
0000
0100
0000
0010
1000
1000
0000
,
0001
0000
0010
0000
0001
0001
1000
0000
,
1000
0000
0100
0000
1000
1000
1000
0000
,
1001
0000
0001
1000
0010
0000
0100
0000
,
0010
0000
1000
0001
0100
0000
0010
0000
,
0100
0000
0010
0100
0001
0000
0010
0000
,
0001
0000
0100
0010
1000
0000
0010
0000
,
1000
0000
0001
0010
0001
0000
0010
0000
,
0100
0000
1000
0100
1000
0000
0010
0000
,
1000
0000
0001
0010
0100
1000
0001
0000
,
1000
0100
0001
0000
0001
0100
1000
0000
,
1001
0000
0000
0000
0001
0000
0000
0000
1000
0000
0001
0010
0001
0000
0100
0000
,
0010
0000
0000
0000
0010
0000
0100
0000
0001
0000
1000
0100
1000
0000
0001
0000
,
1000
0000
1000
0100
0001
0100
1000
0010
,
0100
0000
0010
0000
1000
0000
0001
0000
0100
0000
0010
0100
0010
0000
1000
0000
,
0001
0000
0000
0000
1000
0000
0100
0000
0001
0000
0100
0010
0100
0000
0010
0000
,
0100
0000
0000
0000
0001
0000
0100
0000
0001
0000
1000
0010
1000
0000
0001
0000
,
0010
0000
1000
1000
0010
0010
0100
0100
,
0001
0001
1000
1000
0010
0000
1001
0000
,
0010
0100
0010
1000
0010
0001
0011
0000
,
0100
0001
0100
0010
0100
1000
1100
0000
,
0001
0010
0100
0010
0001
1000
1001
0000
,
1000
0010
0100
0010
0100
0001
0101
0000
,
1000
0100
0100
1000
1100
0000
0101
0000
,
0001
0010
0010
0001
0011
0000
1010
0000
,
1000
0100
0001
0000
1000
0100
0001
0000
,
1000
0100
1001
1100
,
0011
0000
0000
0000
0100
0000
0010
0000
1000
0100
1000
0000
0001
0000
0000
0000
,
0011
0000
0000
0000
1000
0000
0010
0000
0100
0001
0100
0000
0010
0000
0000
0000
,
1010
0000
1000
0010
0100
0100
0001
1000
,
0010
0000
0010
0000
0100
0000
0001
1000
0001
0000
0000
0000
1000
0000
0000
0000
,
1100
0000
0000
0000
0001
0000
0100
0000
0010
1000
0010
0000
0100
0000
0000
0000
,
1001
0000
0000
0000
0010
0000
0100
0000
0001
0010
0001
0000
1000
0000
0000
0000
,
0110
0000
1000
0010
1000
0001
0100
0001
,
0010
0000
0001
0000
1000
0000
0100
1000
0100
0000
0000
0000
1000
0000
0000
0000
,
0011
0000
1000
0100
0001
0100
1000
0100
,
0010
0100
0010
0001
1000
0010
0100
0001
,
0101
0000
0010
0100
0010
1000
0010
0001
,
0010
0000
1000
0000
0010
0000
1000
0010
1000
0000
0000
0000
1000
0000
0000
0000
,
1001
0000
0001
0010
0100
1000
1010
0000
,
0101
0000
0010
0010
1000
1000
0001
0001
,
0010
0010
0010
0010
0010
0010
0010
0010
,
0001
0010
0001
0000
1000
0000
0010
0000
0100
0010
0100
0000
0001
1000
0001
0000
,
0100
0000
0000
0001
0100
0000
0010
0000
0100
0000
0000
0000
0001
0000
0000
0000
,
1000
0000
0000
0100
1000
0000
0010
0000
0100
0000
0000
0000
0010
0000
0000
0000
,
0001
0000
0000
0100
0001
0000
0100
0000
0010
0000
0000
0000
1000
0000
0000
0000
,
0010
0000
0000
1000
0010
0000
0100
0000
0001
0000
0000
0000
0011
0000
0000
0000
,
1000
0000
0000
0100
0001
0000
0100
0000
1000
0000
0000
0000
0010
0000
0000
0000
,
0001
0000
0000
0010
1000
0000
0010
0000
0001
0000
0000
0000
1001
0000
0000
0000
,
0001
0000
0000
1000
0100
0000
1000
0000
0001
0000
0000
0000
0011
0000
0000
0000
,
0001
0000
0000
0100
0010
0000
0000
0000
2002
0000
0000
0000
3000
0000
0000
0000
,
0200
0000
0000
0000
,
0303
0000
0000
0000
;

//---------------dance-single - BASIC----------------
#NOTES:
     dance-single:
     BASIC:
     Easy:
     3:
     0.213,0.218,0.140,0.009,0.000: // measure 1
1000
1000
0100
0000
,  // measure 2
0001
0001
0100
0000
,  // measure 3
1000
1000
0010
0000
,  // measure 4
0001
0001
0010
0000
,  // measure 5
1000
0000
0010
0000
,  // measure 6
0100
0000
0010
0000
,  // measure 7
1000
1000
1000
0000
,  // measure 8
0001
0001
0001
0000
,  // measure 9
0100
0000
0001
0000
,  // measure 10
1000
0000
0010
0000
,  // measure 11
0100
0100
0100
0000
,  // measure 12
0010
0010
0010
0000
,  // measure 13
1001
0000
0010
0000
,  // measure 14
1001
0000
0100
0000
,  // measure 15
0010
0010
1000
0000
,  // measure 16
0001
0001
0100
0000
,  // measure 17
1001
0000
0010
0000
,  // measure 18
1001
0000
0100
0000
,  // measure 19
0100
0100
0100
0000
,  // measure 20
0010
0010
0010
0000
,  // measure 21
1001
0001
1000
0001
,  // measure 22
1000
0000
0010
0000
,  // measure 23
1001
1000
0001
1000
,  // measure 24
0001
0000
0100
0000
,  // measure 25
0001
0010
0001
1000
,  // measure 26
0001
0000
1000
0000
,  // measure 27
1000
0100
1000
0001
,  // measure 28
1000
0000
0010
0000
,  // measure 29
0001
0010
0001
0000
,  // measure 30
0100
0100
1001
0000
,  // measure 31
1001
0000
1000
0001
,  // measure 32
1000
0000
0010
0000
,  // measure 33
1000
0100
1000
0000
,  // measure 34
0010
0010
1001
0000
,  // measure 35
1001
0000
0001
0100
,  // measure 36
0001
0000
1000
0000
,  // measure 37
0010
0100
0010
0000
,  // measure 38
0100
0100
0110
0000
,  // measure 39
0110
0000
1000
0100
,  // measure 40
1000
0000
0001
0000
,  // measure 41
0100
0100
0100
0000
,  // measure 42
0010
0010
0010
0010
,  // measure 43
0020
0000
0000
0030
,  // measure 44
1001
0000
0110
0000
,  // measure 45
1000
1000
0100
0000
,  // measure 46
0001
0001
0100
0000
,  // measure 47
1000
1000
0010
0000
,  // measure 48
0001
0001
0010
0000
,  // measure 49
1000
0100
0010
0000
,  // measure 50
0001
0010
0100
0000
,  // measure 51
1000
0001
0100
0000
,  // measure 52
0001
1000
1001
0000
,  // measure 53
0010
0000
0000
0000
;

//---------------dance-single - TRICK----------------
#NOTES:
     dance-single:
     TRICK:
     Medium:
     5:
     0.352,0.345,0.260,0.009,0.000:
1001
0010
0100
0001
,
0001
0100
0010
0000
,
1001
0100
0010
0001
,
0001
0010
0100
0000
,
0001
0100
0010
0000
,
1000
0100
1000
0000
0100
0000
0000
0000
,
1000
0001
0010
0000
,
0001
0010
0001
0000
0100
0000
0000
0000
,
0010
1000
0100
0000
,
1000
0001
1000
0000
0001
0000
0000
0000
,
0010
1000
0001
0000
,
0001
0100
0001
0000
0100
0000
0000
0000
,
1001
0000
0010
0000
0010
0100
0010
0000
,
1000
0001
0100
0000
,
0001
0000
1000
0001
1000
0001
1000
0000
,
1000
0010
1000
0000
0001
0100
0001
0000
,
1001
0000
0100
0000
0100
0010
0100
0000
,
0001
1000
0001
0000
,
0100
0000
0001
0100
0001
0100
0001
0000
,
1000
0001
1000
0000
0010
0100
0010
0000
,
1010
1010
1000
1000
,
0101
0101
0001
0001
,
1001
0110
1000
0010
,
0100
0001
0100
0010
,
1010
1010
1000
1000
,
0101
0101
0001
0001
,
1000
0100
1000
0000
0001
0100
0001
0000
,
1000
0010
0100
0001
,
1001
0000
1000
0010
0100
0000
0001
0000
,
1000
0000
0010
0100
0010
0000
0010
0000
,
0110
0000
1000
0000
0001
0100
0010
0000
,
1000
0010
1000
0000
0001
0100
0001
0000
,
0101
1010
1000
0100
,
1001
0101
0001
0100
,
0010
0000
1000
0001
1000
0001
0100
0000
,
0010
0100
0010
0000
0100
0000
0100
0000
,
1001
1100
0010
0100
,
0101
1010
0100
0001
,
1000
0000
0001
0100
0001
0100
0010
0000
,
1000
0100
1000
0000
0001
0100
0001
0000
,
1010
0000
0100
0010
0100
0010
1000
0000
,
0001
1000
0010
0100
,
0001
1000
0001
1000
0001
1000
0001
1000
,
0001
0000
1001
1001
,
1000
0000
1000
0000
1000
0100
0001
0000
,
0001
0000
0001
0000
0001
0100
1000
0000
,
0010
0000
1000
0000
0010
0100
0010
0000
,
1000
0000
0001
0000
0100
0001
0100
0000
,
0001
0000
0010
0000
0100
1000
0100
0000
,
0010
0000
0001
0000
1000
0100
1000
0000
,
0010
0000
0100
0000
0001
1000
0001
0000
,
0100
0010
1001
0000
,
0020
0000
0000
0000
,
0030
0000
0000
0000;
