#TITLE:SAY IT RIGHT;
#SUBTITLE:(Delaction Remix);
#ARTIST:NELLY FURTADO;
#TITLETRANSLIT:;
#SUBTITLETRANSLIT:;
#ARTISTTRANSLIT:;
#CREDIT:;
#BANNER:SAY IT RIGHT (Delaction Remix).png;
#BACKGROUND:SAY IT RIGHT (Delaction Remix)-bg.png;
#LYRICSPATH:;
#CDTITLE:KOAKUMA TRANCE.png;
#MUSIC:SAY IT RIGHT (Delaction Remix) - NELLY FURTADO.mp3;
#OFFSET:-6.820;
#SAMPLESTART:67.122;
#SAMPLELENGTH:12.000;
#SELECTABLE:YES;
#BPMS:0.000=143.000;
#STOPS:;
#BGCHANGES:;

//---------------dance-single - ----------------
#NOTES:
     dance-single:
     :
     Hard:
     8:
     0.513,0.561,0.043,0.000,0.224: // measure 1
1001
0000
0000
0000
0001
0100
0000
0101
,  // measure 2
0000
0000
0000
0000
1000
0010
0010
0000
,  // measure 3
1010
0000
0101
0000
,  // measure 4
0010
0000
0000
0000
0010
0000
0000
0000
0010
0000
1000
0100
1000
0000
0000
0000
,  // measure 5
0001
0000
0000
0001
0000
0000
0001
0000
0100
0010
0100
0000
0001
0000
1000
0000
,  // measure 6
0100
0000
0000
0100
0000
0000
0100
0000
1000
0010
1000
0000
0001
0000
0010
0000
,  // measure 7
0100
0000
0010
0000
0010
0000
0001
0100
0001
0000
1000
0000
1000
0000
0100
0010
,  // measure 8
0100
0000
1000
0000
1000
0000
0001
0100
0001
0100
0001
0000
1000
0000
0100
0000
,  // measure 9
1000
0000
0000
1000
0000
0000
1000
0000
0010
0100
0010
0000
1000
0000
0001
0000
,  // measure 10
0010
0000
0000
0010
0000
0000
0010
0000
0001
0100
0001
0000
1000
0000
0100
0000
,  // measure 11
0010
0000
0001
0000
0001
0000
0100
0010
0100
0000
0001
0000
0001
0000
1000
0010
,  // measure 12
1000
0000
0001
0000
0001
0000
1000
0100
1000
0100
1000
0000
0001
0000
0010
0000
,  // measure 13
0001
0000
0001
0000
0010
0100
0010
0000
,  // measure 14
0001
1000
0100
1000
0010
0100
0001
0000
,  // measure 15
1000
0000
1000
0000
0001
0000
0100
0001
0100
0000
0010
0000
1000
0000
0100
0010
,  // measure 16
0100
0000
1000
0000
0001
0000
0100
0010
0100
0010
0100
0000
0001
0000
1000
0000
,  // measure 17
0100
0000
0100
0000
0010
0001
0100
0000
,  // measure 18
0100
0001
0010
0100
0010
0000
0001
0100
,  // measure 19
0010
1000
0100
0000
1000
0100
0100
0000
,  // measure 20
1000
0001
0100
0000
0010
1000
0010
0100
,  // measure 21
0001
0010
0000
0001
0000
0100
0010
1000
,  // measure 22
0100
0010
0000
0001
0000
0100
0001
1000
,  // measure 23
0100
0010
0000
0100
0000
1000
0001
0010
,  // measure 24
0001
0100
0000
0010
0000
1000
0100
0010
,  // measure 25
0001
0100
0001
0010
0000
0001
1000
0100
,  // measure 26
1000
0001
0010
0100
0000
0100
0010
0001
,  // measure 27
1000
0100
1000
0010
0000
1000
0001
0010
,  // measure 28
0100
1000
0001
0010
0000
0000
0000
0000
,  // measure 29
0001
0000
0000
0000
1000
0000
0010
0100
0001
0000
1000
0000
0000
0000
0000
0000
,  // measure 30
0000
0000
0100
0000
0010
0000
0001
0100
0010
0000
1000
0000
0100
0000
0000
0000
,  // measure 31
1000
0000
0000
0000
0001
0000
0100
0010
1000
0000
0100
0000
0000
0000
0000
0000
,  // measure 32
0000
0000
0010
0000
0001
0000
1000
0100
0010
0000
0001
0000
0100
0000
0000
0000
,  // measure 33
0010
0000
0000
0000
1000
0000
0010
1000
0100
0000
0010
0000
0000
0000
0000
0000
,  // measure 34
0000
0000
0001
0000
0010
0000
0100
1000
0010
0000
0100
0000
0001
0000
0000
0000
,  // measure 35
0100
0000
0000
0000
0001
0000
1000
0100
0010
0000
0001
0000
0000
0000
0000
0000
,  // measure 36
0100
0000
0001
0000
,  // measure 37
1000
0100
0001
0100
1000
0000
1000
0000
,  // measure 38
0001
0010
0100
1000
0010
0000
0010
1000
,  // measure 39
0100
0000
1000
0000
0000
0001
0000
0000
0100
0000
0010
1000
0000
0000
0100
0000
,  // measure 40
0000
0000
0010
0000
0000
0001
0000
0000
1000
0000
0001
0010
0000
0000
0001
0000
,  // measure 41
1000
0100
0010
0100
1000
0000
1000
0000
,  // measure 42
0001
0010
0100
0010
0001
0000
0001
0100
,  // measure 43
1000
0000
0100
0000
0000
0010
0000
0000
1000
0000
0100
1000
0000
0000
0001
0000
,  // measure 44
0010
0000
0001
0000
0100
0010
0000
0010
1000
0000
0001
0100
0000
0100
0010
0000
,  // measure 45
1000
0100
0010
0001
0100
0000
0100
0000
,  // measure 46
0001
0010
0100
1000
0010
1000
0100
0010
,  // measure 47
0001
0000
0100
0000
0000
0010
0000
0000
1000
0000
0001
0100
0000
0000
0010
0000
,  // measure 48
0000
0000
1000
0000
0000
0001
0000
0000
0100
0000
0010
1000
0000
0000
0100
0000
,  // measure 49
0010
0000
0100
0000
1000
0001
0100
0000
,  // measure 50
0010
1000
0001
0000
,  // measure 51
0010
0000
0000
0000
;

//---------------dance-single - ----------------
#NOTES:
     dance-single:
     :
     Easy:
     3:
     0.232,0.240,0.043,0.128,0.000:
1000
0000
0100
0000
,
0000
0000
1000
0001
,
0010
0000
0001
0000
,
1000
0100
1000
0001
,
1001
0000
0010
0100
,
0001
0000
1000
0100
,
1000
0000
0001
0000
,
1000
0000
0001
0001
,
1000
0000
0001
0100
,
0010
0000
1000
0100
,
0001
0000
0100
0000
,
1000
0010
0100
0001
,
1000
0001
0100
0000
,
0100
0010
1000
0000
,
0100
0000
0100
0000
,
1000
0001
0010
0010
,
0001
0000
1000
0000
,
0100
1000
0010
0000
,
0100
0000
0001
0000
,
1000
0000
0100
0100
,
2000
3000
0001
0000
,
0200
0300
0010
0000
,
2000
3000
0010
0000
,
0002
0003
1000
0000
,
0200
0300
0010
0000
,
2000
3000
0001
0000
,
0020
0030
0001
0000
,
0200
0300
0001
0000
,
1000
1000
0100
0000
,
0000
0001
1000
0010
,
0100
0001
1000
1000
,
0000
0100
0010
0001
,
1000
0100
1000
1000
,
0000
0001
0100
0010
,
1000
0000
0001
0000
,
0100
0000
0000
0000
,
1001
0010
0200
0301
,
1000
0000
0100
0000
,
1000
0100
1000
0000
,
0001
0100
0001
0000
,
1000
1001
0020
0130
,
0001
0000
1000
0000
,
0100
1000
0010
0000
,
0100
0000
0001
0001
,
1100
0001
0020
0030
,
0001
0000
0100
0010
,
1000
0000
0001
0100
,
0000
0010
1000
0100
,
0002
0000
0000
0003
1000
0000
0000
0000
,
0100
1000
0010
0000
,
0100
0000
0000
0000
;

//---------------dance-single - ----------------
#NOTES:
     dance-single:
     :
     Medium:
     5:
     0.365,0.373,0.053,0.000,0.000:
1001
0000
0000
0000
0001
0001
0000
0100
,
0000
0000
0000
0000
0010
0010
0010
0000
,
1010
0000
0001
0000
,
0100
0000
0010
0000
1000
0100
1000
0000
,
0001
0000
0001
0000
0100
0010
0100
0000
,
0001
0000
0001
0000
1000
0100
1000
0000
,
0001
0100
0001
0000
1000
0100
1000
0000
,
0010
0100
0001
0000
1000
1000
0100
1000
,
0010
0000
0010
0000
0100
0001
0100
0000
,
0010
0000
0010
0000
0001
1000
0001
0000
,
1000
0100
1000
0000
0001
0100
0010
0000
,
1000
0100
1000
0000
0001
0001
0100
0010
,
1000
0000
1000
0000
0100
0001
0100
0000
,
1000
1000
0001
0100
,
0010
0100
0010
0000
1000
0001
1000
0000
,
0100
0001
0100
0000
1000
1000
0100
1000
,
0010
0000
0010
0000
0100
0001
0100
0000
,
0010
1000
0001
0100
,
0001
0001
1000
0000
0100
0000
0100
0000
,
1000
0010
1000
0000
0001
0100
0010
1000
,
0001
1000
0100
0000
,
0100
1000
0010
0000
,
0100
0001
0010
0000
,
0001
1000
0100
0000
,
0100
1000
0010
0000
,
0100
0001
0010
0000
,
0001
1000
0010
0000
,
0100
1000
0001
0010
,
0101
0000
0010
0000
1000
1000
0000
0000
,
0000
0000
0100
0000
0010
1000
0010
0000
,
0100
0000
0001
0000
0010
0010
0000
0000
,
0001
0000
1000
0000
0100
1000
0100
0000
,
1000
0000
0010
0000
0100
0100
0000
0000
,
0001
0000
0010
0000
0001
1000
0001
0000
,
0110
0000
1000
0000
,
0001
0000
0100
0000
0010
1000
0010
0000
,
0001
0000
0001
0000
1000
0100
1000
0000
,
0001
0100
0010
1000
0001
0000
0100
0000
,
0010
1000
0100
0000
0100
0000
0100
0000
,
1000
0010
0100
0000
0001
0000
0001
0000
,
1000
0100
1000
0000
0001
0000
0001
0000
,
0100
0010
0100
0000
0001
0000
1000
0010
,
1000
0100
0010
0001
,
0100
0000
0010
0000
1000
0001
1000
0000
,
0010
0000
0010
0000
0100
0001
0100
0000
,
0010
0000
1000
0100
0001
0000
0100
0000
,
1000
0010
1000
0000
0001
0000
0001
0000
,
0100
0010
0100
0000
0001
0000
0001
0000
,
1100
0000
0010
0000
0100
0001
0100
0000
,
0010
1000
0010
0100
0001
0000
0001
0010
;
