#TITLE:Ride Wit Me;
#SUBTITLE:;
#ARTIST:NELLY feat CITY SPUD;
#TITLETRANSLIT:;
#SUBTITLETRANSLIT:;
#ARTISTTRANSLIT:;
#CREDIT:Juub005;
#BANNER:Ride Wit Me.png;
#BACKGROUND:Ride Wit Me-bg.png;
#LYRICSPATH:;
#CDTITLE:COUNTRY GRAMMAR.png;
#MUSIC:Ride Wit Me.mp3;
#OFFSET:-0.040;
#SAMPLESTART:65.900;
#SAMPLELENGTH:18.840;
#SELECTABLE:YES;
#BPMS:0.000=101.855;
#STOPS:;
#BGCHANGES:;

//---------------dance-single - ----------------
#NOTES:
     dance-single:
     :
     Hard:
     6:
     0.359,0.405,0.497,0.000,0.032:
0000
0000
0000
0000
,
0000
0000
0000
0000
,
1000
0010
1000
0000
,
1000
0000
0000
0000
0010
0010
0100
0100
,
0001
0000
1000
0000
0100
0000
1000
0000
0001
0000
0000
0010
0000
0000
0000
0000
,
1000
0010
0001
0010
0001
0010
1100
0000
,
1001
0100
0010
0000
1001
0010
0100
0000
,
1001
0000
0000
0000
0110
0010
0110
0000
,
0010
0000
0001
0000
0010
0000
0001
0000
0100
0000
0000
0001
0000
0000
0000
0000
,
1000
0001
1000
0001
0010
0100
0000
0000
,
1000
0010
0100
0000
1000
0010
0100
0000
,
0010
0000
0000
0000
1001
0001
1001
0000
,
0000
0000
0000
0000
1100
1100
0001
0000
,
1001
1000
0010
0000
0101
0101
0000
0000
,
0001
0100
0010
0000
0001
0010
0100
0000
,
0110
0000
0001
0100
1000
0000
0000
0000
,
1001
0001
1000
0000
0011
0011
1000
0000
,
0101
0001
0001
0000
1100
1100
0000
0000
,
1000
0001
0010
0000
1000
0010
0100
0000
,
0110
0000
1000
0100
0001
0000
0000
0000
,
1010
1010
1010
0000
0011
0011
0011
0000
,
0001
0010
1000
0000
0001
0010
0001
0000
,
1100
1100
1100
0000
0110
0110
0110
0000
,
1000
0100
1000
0000
0010
0001
0010
1000
,
1010
0000
0010
0000
1010
0000
1000
0000
0001
0000
0000
1000
0000
0000
0001
0000
,
0000
0000
0010
0000
0011
0000
0001
0000
0011
0000
0000
0001
0000
0000
1000
0000
,
0000
0010
0100
0001
1000
0100
0001
0100
,
1000
0000
0000
0000
0001
0001
0001
0000
,
0010
0000
1000
0000
0001
0000
1000
0000
0010
0000
0000
0100
0000
0000
0000
0000
,
1000
0100
0001
0100
0001
0100
1010
0000
,
1001
0100
0010
0000
1001
0010
0100
0000
,
1001
0000
0000
0000
0110
0010
0110
0000
,
0100
0000
0001
0000
0010
0000
1000
0000
0100
0000
0000
0010
0000
0000
0000
0000
,
1000
0100
1000
0100
0001
0100
0000
0000
,
1000
0010
0100
0001
0010
0100
0001
0000
,
1000
0000
0000
0000
0110
1001
0110
0000
;

//---------------dance-single - ----------------
#NOTES:
     dance-single:
     :
     Medium:
     5:
     0.241,0.302,0.000,0.000,0.000:
0000
0000
0000
0000
,
0000
0000
0000
0000
,
0010
0010
0010
0010
,
0010
0000
0000
0000
0100
0100
0100
0000
,
0001
0010
0001
0010
0100
0000
1000
0000
,
0010
1000
0010
1000
0001
0000
0100
0000
,
0010
0010
0010
0000
0100
0100
0100
0000
,
0010
0000
0000
0000
,
1000
0100
0100
0010
0010
0000
0000
0000
,
0001
0001
0001
0000
1000
0000
0000
0000
,
0010
0100
0010
1000
0100
0010
0100
0000
,
1000
0000
0000
0000
,
0001
0010
0001
0000
1000
1000
1000
0000
,
0100
0100
0010
0000
,
0001
0100
0001
0000
1000
1000
1000
0000
,
0010
0010
0100
0000
,
0001
1000
0100
0000
1000
0000
0000
0000
,
0010
1000
0001
0000
1000
0000
0000
0000
,
0010
0010
0010
0000
0100
0001
0100
0000
,
0010
0010
0100
0000
,
0001
0000
0001
0000
,
0001
1000
0100
0000
1000
0001
0100
0000
,
1000
0000
1000
0000
,
1000
0001
0100
0000
0001
1000
0100
0000
,
0000
1000
0010
1000
0010
1000
0010
1000
,
0010
0100
0001
0100
0001
0100
0001
0100
,
0001
0000
0000
0000
0010
0000
0100
1000
,
0010
0000
0000
0000
0010
0010
0010
0000
,
1000
0010
1000
0010
0100
0000
0001
0000
,
0010
0001
0010
0001
1000
0000
0100
0000
,
0010
0010
0010
0000
0100
0100
0100
0000
,
0010
0000
0000
0000
,
0001
1000
1000
0010
0010
0000
0000
0000
,
0100
0100
0100
0000
0001
0000
0010
0100
,
1000
0010
0100
0000
0010
0100
0001
0010
,
0100
0000
0000
0000
;

//---------------dance-single - ----------------
#NOTES:
     dance-single:
     :
     Easy:
     2:
     0.136,0.194,0.054,0.000,0.000:
0000
0000
0000
0000
,
0000
0000
0000
0000
,
0001
0000
1000
0000
,
0001
0000
0000
0000
,
1000
1000
0001
0000
,
0010
0000
0001
0100
,
0010
0000
0100
0000
,
0010
0000
0000
0000
,
1000
1000
0010
0000
,
0100
0000
0001
0000
,
1000
0000
1000
0000
,
0010
0000
0000
0000
,
1000
0100
0010
0000
,
0001
1000
0010
0000
,
1000
0000
0001
0000
,
1000
0000
1000
0000
,
0001
0001
0001
0000
,
1000
1000
1000
0000
,
0010
0010
0010
0010
0010
0000
0000
0000
,
0100
0000
0000
0000
,
1001
0000
1001
0000
,
0100
0100
0001
0001
,
0110
0000
0110
0000
,
0010
0010
1000
1000
,
0000
0000
0100
0010
,
0000
0000
0001
1000
,
0000
0000
0010
0100
,
0010
0000
0000
0000
,
1000
1000
0001
0000
,
0100
0000
0010
1000
,
0100
0000
0010
0000
,
0100
0000
0000
0000
,
0010
0010
0001
0000
,
1000
0000
0010
0000
,
0100
0001
1000
0000
,
1001
0000
0000
0000
0010
0010
0010
0010
;

//---------------dance-single - ----------------
#NOTES:
     dance-single:
     :
     Beginner:
     1:
     0.105,0.151,0.065,0.000,0.000:
0000
0000
0000
0000
,
0000
0000
0000
0000
,
0100
0000
0100
0000
,
0100
0000
0000
0000
,
1000
0000
0001
0000
,
1000
0000
1000
0000
,
0010
0000
0100
0000
,
0100
0000
0000
0000
,
0001
0000
1000
0000
,
0001
0000
0000
0000
,
0010
0000
0100
0000
,
0100
0000
0000
0000
,
1001
0000
0000
0000
,
0010
0010
0010
0000
,
1000
0000
0100
0000
,
0100
0000
0000
0000
,
1001
0000
1000
0000
,
0001
0000
0000
0000
,
0100
0100
0100
0000
,
0010
0010
0010
0000
,
0110
0000
0110
0000
,
1000
0000
0001
0000
,
0110
0000
0110
0000
,
0001
0000
1000
0000
,
0010
0010
0010
0000
,
0000
0100
0000
0100
,
0100
0000
0001
0001
,
0001
0000
0000
0000
,
1000
0000
0100
0000
,
1000
0000
1000
0000
,
0001
0000
0010
0000
,
0010
0000
0000
0000
,
0001
0000
1000
0000
,
0001
0000
0000
0000
,
0100
0000
0010
0000
,
0010
0000
0000
0000
;

//---------------dance-double - ----------------
#NOTES:
     dance-double:
     :
     Hard:
     6:
     0.364,0.405,0.507,0.000,0.032: // measure 1
00000000
00000000
00000000
00000000
,  // measure 2
00000000
00000000
00000000
00000000
,  // measure 3
00000100
00001000
00000001
00000000
,  // measure 4
00001000
00000000
00000000
00000000
00000010
00000010
00010000
00010000
,  // measure 5
00001000
00000000
01000000
00000000
00010000
00000000
01000000
00000000
00100000
00000000
00000000
01000000
00000000
00000000
00000000
00000000
,  // measure 6
10000000
01000000
00010000
01000000
00010000
00100000
00110000
00000000
,  // measure 7
00101000
00010000
00101000
00000000
00011000
00010000
00011000
00000000
,  // measure 8
01001000
00000000
00000000
00000000
00100000
00100000
00100000
00000000
,  // measure 9
00001000
00000000
00010000
00000000
00000100
00000000
00010000
00000000
00001000
00000000
00000000
00010000
00000000
00000000
00000000
00000000
,  // measure 10
00001000
00000010
00001000
00000010
00000001
00001000
00000000
00000000
,  // measure 11
00001010
00000100
00001010
00000000
00000110
00000100
00000110
00000000
,  // measure 12
00000101
00000000
00000000
00000000
00000001
00000001
00000001
00000010
,  // measure 13
00000001
00000000
00000000
00000000
00001010
00001010
00000001
00000000
,  // measure 14
00010100
00000100
00000100
00000000
00011000
00011000
00000000
00000000
,  // measure 15
00010000
01000000
00001000
00000000
00010000
01000000
00001000
00000000
,  // measure 16
01000000
00000000
00010000
01000000
10000000
00000000
00000000
00000000
,  // measure 17
10100000
10000000
00010000
00000000
01010000
01010000
10000000
00000000
,  // measure 18
11000000
01000000
01000000
00000000
00100000
00100000
00000000
00000000
,  // measure 19
00001000
00010000
00000100
00000000
00010000
00000010
00000100
00000000
,  // measure 20
00000001
00000000
00000010
00010000
00000100
00000000
00000000
00000000
,  // measure 21
00000110
00000110
00000110
00000000
00000110
00000110
00000110
00000000
,  // measure 22
00000001
00000100
00001000
00000000
00010000
01000000
10000000
00000000
,  // measure 23
01100000
01100000
01100000
00000000
10010000
10010000
10010000
00000000
,  // measure 24
10000000
00100000
00010000
00000000
00001000
00000010
00000001
00000001
,  // measure 25
00000011
00000000
00000010
00000000
00000011
00000000
00000001
00000000
00001000
00000000
00000000
00000010
00000000
00000000
00001000
00000000
,  // measure 26
00000000
00000000
00000010
00000000
00001010
00000000
00001000
00000000
00001010
00000000
00000000
00000001
00000000
00000000
00001000
00000000
,  // measure 27
00000100
00000010
00000100
00000000
00000010
00000010
00000001
00000100
,  // measure 28
00000010
00000000
00000000
00000000
00001000
00000100
00001000
00000000
,  // measure 29
00000100
00000000
00010000
00000000
00001000
00000000
00010000
00000000
01000000
00000000
00000000
00100000
00000000
00000000
00000000
00000000
,  // measure 30
00010000
01000000
10000000
01000000
00010000
10000000
10010000
00000000
,  // measure 31
11000000
00100000
11000000
00000000
00110000
00100000
00110000
00000000
,  // measure 32
10010000
00000000
00000000
00000000
10010000
00010000
10010000
00000000
,  // measure 33
01000000
00000000
10000000
00000000
00100000
00000000
00010000
00000000
01000000
00000000
00000000
00100000
00000000
00000000
00000000
00000000
,  // measure 34
01000000
00010000
00100000
00001000
00010000
00010000
00000000
00000000
,  // measure 35
00001000
00000010
00000001
00000010
00001000
00000001
00000010
00000000
,  // measure 36
00000100
00000000
00000000
00000000
00000011
00001100
00000011
00000000
;

//---------------dance-double - ----------------
#NOTES:
     dance-double:
     :
     Medium:
     4:
     0.196,0.270,0.000,0.000,0.000: // measure 1
00000000
00000000
00000000
00000000
,  // measure 2
00000000
00000000
00000000
00000000
,  // measure 3
00010000
00010000
00010000
00010000
,  // measure 4
00010000
00000000
00000000
00000000
,  // measure 5
01000000
00010000
01000000
00000000
00010000
00000000
00000000
00000000
,  // measure 6
00100000
00001000
00100000
00000000
,  // measure 7
00001000
00000000
00010000
00000000
,  // measure 8
00000100
00000000
00000000
00000000
,  // measure 9
00000010
00000001
00000010
00000000
00000001
00000000
00000000
00000000
,  // measure 10
00000100
00000010
00000100
00000010
00000100
00000000
00000000
00000000
,  // measure 11
00000010
00000000
00001000
00000000
,  // measure 12
00000100
00000000
00000000
00000000
00000100
00000100
00000100
00000000
,  // measure 13
00000000
00000000
00000000
00000000
00010000
00001000
00010000
00000000
,  // measure 14
00001000
00000000
00001000
00000000
00100000
00100000
00000000
00000000
,  // measure 15
00010000
01000000
00010000
00000000
01000000
00100000
00100000
00000000
,  // measure 16
10000000
10000000
10000000
00000000
,  // measure 17
01000000
00100000
01000000
00100000
00010000
00000000
00000000
00000000
,  // measure 18
00100000
01000000
10000000
00000000
,  // measure 19
10000000
00100000
01000000
00000000
,  // measure 20
00010000
00000000
00000000
00000000
,  // measure 21
00100000
00100000
00100000
00000000
00001000
00001000
00001000
00000000
,  // measure 22
00010000
00010000
00010000
00010000
00010000
00010000
00010000
00000000
,  // measure 23
00001000
00000000
00000010
00000000
,  // measure 24
00000001
00001000
00000001
00001000
,  // measure 25
00000010
00000000
00000100
00000010
00000100
00000010
00001000
00000000
,  // measure 26
00000001
00000000
00001000
00000100
00001000
00000100
00001000
00000000
,  // measure 27
00000001
00000100
00001000
00000000
00001000
00000100
00000001
00000000
,  // measure 28
00001000
00000000
00000000
00000000
,  // measure 29
00000100
00001000
00000100
00000000
00010000
00000000
00000000
00000000
,  // measure 30
00001000
00010000
00001000
00000000
00010000
00000000
00001000
00000000
,  // measure 31
01000000
00000000
00100000
00000000
,  // measure 32
10000000
00000000
00000000
00000000
,  // measure 33
00010000
00100000
00010000
00100000
00100000
00000000
00000000
00000000
,  // measure 34
01000000
10000000
01000000
10000000
10000000
00000000
00000000
00000000
,  // measure 35
00100000
01000000
00010000
00000000
00010000
00100000
00001000
00000000
,  // measure 36
00010000
00000000
00001000
00001000
;

//---------------dance-double - ----------------
#NOTES:
     dance-double:
     :
     Easy:
     1:
     0.114,0.170,0.043,0.000,0.000: // measure 1
00000000
00000000
00000000
00000000
,  // measure 2
00000000
00000000
00000000
00000000
,  // measure 3
00100000
00000000
00100000
00000000
,  // measure 4
00100000
00000000
00000000
00000000
,  // measure 5
00010000
00000000
10000000
00000000
,  // measure 6
00010000
00010000
00010000
00000000
,  // measure 7
01000000
00000000
00001000
00000000
,  // measure 8
00001000
00000000
00000000
00000000
,  // measure 9
00010000
00000000
00000100
00000000
,  // measure 10
00000010
00000010
00000010
00000000
,  // measure 11
00000001
00000000
00001000
00000000
,  // measure 12
00001000
00000000
00000000
00000000
,  // measure 13
00000110
00000000
00000000
00000000
,  // measure 14
00001001
00001001
00001001
00000000
,  // measure 15
00000100
00000000
00000100
00000000
,  // measure 16
00010000
00000000
00000000
00000000
,  // measure 17
00001000
00001000
00001000
00000000
,  // measure 18
00010000
00010000
00010000
00000000
,  // measure 19
00001000
00000000
00100000
00000000
,  // measure 20
00001000
00000000
00000000
00000000
,  // measure 21
00100000
00000000
00100000
00000000
,  // measure 22
01000000
01000000
01000000
00000000
,  // measure 23
10000000
00000000
10000000
00000000
,  // measure 24
00010000
00010000
00010000
00000000
,  // measure 25
00000000
01000000
01000000
00000000
,  // measure 26
00000000
00100000
00100000
00000000
,  // measure 27
01000000
00010000
00100000
00000000
,  // measure 28
00100000
00000000
00000000
00000000
,  // measure 29
00001000
00000000
00001000
00000000
,  // measure 30
00000100
00000100
00000100
00000000
,  // measure 31
00000001
00000000
00000001
00000000
,  // measure 32
00001000
00000000
00000000
00000000
,  // measure 33
00000100
00000100
00000010
00000000
,  // measure 34
00000001
00000001
00001000
00000000
,  // measure 35
00000010
00000000
00000100
00000000
,  // measure 36
00000001
00000000
00000000
00000000
;
