#TITLE:Reality;
#SUBTITLE:;
#ARTIST:mioco;
#TITLETRANSLIT:;
#SUBTITLETRANSLIT:;
#ARTISTTRANSLIT:;
#CREDIT:;
#BANNER:REALITY.png;
#BACKGROUND:REALITY-bg.png;
#LYRICSPATH:;
#CDTITLE:;
#MUSIC:REALITY.mp3;
#OFFSET:-0.027;
#SAMPLESTART:54.721;
#SAMPLELENGTH:12.000;
#SELECTABLE:YES;
#BPMS:0.000=148.000;
#STOPS:;
#BGCHANGES:;

//---------------dance-single - ----------------
#NOTES:
     dance-single:
     :
     Hard:
     7:
     0.431,0.472,0.437,0.081,0.036:
0000
0000
0000
0000
,
0000
0000
0000
0000
,
0000
0000
0000
0000
,
0000
0000
0000
0000
,
1010
1000
0011
0001
,
1100
1000
0101
0001
,
1000
0000
0000
0010
0000
0000
0100
0000
0001
0000
0000
0010
0000
0000
0001
0000
,
0100
0000
0000
0010
0000
0000
1000
0000
0010
0000
0000
0100
0000
0000
0001
0000
,
1000
0000
0000
0000
,
0000
0000
0000
0000
,
0010
1000
0001
0000
0011
0000
1010
0000
,
1000
0010
0100
0000
0101
0000
1100
0000
,
1000
1000
0100
0100
,
0010
0000
0010
0000
0001
1000
0001
0000
,
1000
0100
0001
0000
1100
0000
0011
0000
,
1000
0010
0001
0000
1010
0000
0101
0000
,
0010
0010
0100
0100
,
0001
0001
1100
1001
,
0101
0010
1000
0000
,
1010
0100
0001
0000
,
1100
0010
0001
0000
,
1001
0100
0010
0000
,
1000
0100
1000
0100
0010
0001
0100
0000
,
0010
1000
0001
0010
,
0001
1000
0100
0000
0010
0001
1000
0000
,
0011
0000
1001
1001
0000
0000
0000
0000
,
1000
0010
0100
0001
0000
0000
0000
1000
,
0100
0010
0001
0100
0000
0000
0010
0000
,
1000
1000
0100
0100
,
0010
0000
0000
0001
0000
0000
0100
0000
0000
0000
0001
0000
0000
0000
0000
0000
,
1000
0010
1000
0100
0010
0001
0100
0000
,
0001
0010
0100
1000
0001
0100
0010
0000
,
1000
0100
0001
0100
1000
0010
0001
0000
,
2020
0000
0000
3030
,
1000
0100
1000
0010
1000
0000
0001
0000
,
0010
0010
0001
0001
,
0100
0010
0100
1000
0100
0000
0001
0000
,
1000
0100
0010
0001
,
0010
0001
0100
0001
0010
0000
0001
0000
,
1000
1000
0001
0001
,
1000
0100
0010
0100
1000
0000
0002
0000
,
0000
0003
0000
0000
,
1000
0001
0100
0010
1000
0000
0000
0000
,
0011
0011
1010
1010
,
1000
0100
1000
0001
1000
0000
0001
0000
,
0101
0101
1100
1100
,
0010
0001
0010
0001
0100
0000
0000
0000
,
1010
0011
1010
0011
,
1000
0001
0100
0000
0001
1000
0020
0000
,
0000
1000
1000
1030
,
0001
1000
0100
0000
0110
0000
0110
0000
,
0010
0000
0001
0000
1000
0000
0000
0000
0001
0000
0000
0100
0000
0000
0010
0000
,
1000
0100
1000
0000
0101
0000
0101
0000
,
0002
0000
0023
0000
0130
1000
0001
0000
,
1000
0100
0010
0000
1001
0000
1001
0000
,
0001
0000
0100
0000
0010
0000
0000
0000
1000
0000
0000
0100
0000
0000
0010
0000
,
0001
0100
1000
0000
0101
0000
0101
0000
,
0020
0000
0230
0000
1300
0001
0010
0000
,
1001
0000
0000
0000
;

//---------------dance-single - ----------------
#NOTES:
     dance-single:
     :
     Medium:
     5:
     0.343,0.383,0.081,0.020,0.000: // measure 1
0000
0000
0000
0000
,  // measure 2
0000
0000
0000
0000
,  // measure 3
0000
0000
0000
0000
,  // measure 4
0000
0000
0000
0000
,  // measure 5
1000
1000
0001
0001
,  // measure 6
1000
1000
0001
0001
,  // measure 7
0010
0010
0100
0100
,  // measure 8
1000
0001
0100
0010
,  // measure 9
1001
0000
0000
0000
,  // measure 10
0000
0000
0000
0000
,  // measure 11
1000
0000
0001
1000
0001
0000
0100
0000
,  // measure 12
0010
1000
0001
1001
,  // measure 13
1000
0100
1000
0100
,  // measure 14
0010
0000
0001
0000
0100
0001
0100
0000
,  // measure 15
0010
1000
0001
1000
,  // measure 16
0100
0000
1000
0000
0100
1000
0100
0000
,  // measure 17
0010
0001
0100
0010
,  // measure 18
1000
0000
0001
0000
1000
0001
1000
0000
,  // measure 19
0001
0100
0010
0000
,  // measure 20
1000
0100
0010
0000
,  // measure 21
0001
0100
0010
0000
,  // measure 22
1000
0100
0010
0000
,  // measure 23
0001
0000
0100
0000
0010
1000
0010
0000
,  // measure 24
0100
0000
0001
0000
0010
0100
1000
0000
,  // measure 25
1000
0100
0010
0000
0001
0010
0100
0000
,  // measure 26
1000
0000
0001
1000
0000
0000
0000
0000
,  // measure 27
0001
0100
0010
1000
0001
0000
0000
0000
,  // measure 28
1000
0100
0010
0001
1000
0000
0000
0000
,  // measure 29
0001
0100
0010
1000
0001
0000
0000
0000
,  // measure 30
1001
0000
0000
0000
,  // measure 31
1000
0100
0010
0000
0001
0000
0001
0000
,  // measure 32
1000
0010
0100
0000
0001
0000
0001
0000
,  // measure 33
1000
0100
1000
0000
0001
0010
0001
0000
,  // measure 34
1001
0000
0000
0000
,  // measure 35
1000
0010
1000
0010
0100
0001
0100
0001
,  // measure 36
0010
0001
1000
0100
,  // measure 37
1000
0010
1000
0010
0100
0001
0100
0001
,  // measure 38
1000
1000
0100
0010
,  // measure 39
0001
1000
0001
1000
0010
0100
0010
0100
,  // measure 40
0001
0001
1000
1000
,  // measure 41
0100
0010
0100
0000
0010
0001
0020
0000
,  // measure 42
0000
0000
0030
0000
,  // measure 43
0000
0001
1000
0001
1000
0000
0000
0000
,  // measure 44
0101
1000
0001
1000
,  // measure 45
0000
0100
1000
0100
1000
0000
0000
0000
,  // measure 46
0101
0010
1000
0001
,  // measure 47
0000
0100
1000
0100
1000
0000
0000
0000
,  // measure 48
1000
0001
0100
0010
,  // measure 49
1000
0100
1000
0000
0001
0010
0002
0000
,  // measure 50
0000
0003
0000
0000
,  // measure 51
0010
0000
0100
0010
0100
0000
1000
0000
,  // measure 52
0001
0010
0100
0110
,  // measure 53
0010
1000
0010
1000
,  // measure 54
0001
0000
0100
0000
1000
0100
1000
0000
,  // measure 55
0001
0010
0100
0010
,  // measure 56
1000
0000
0010
0000
1000
0010
1000
0000
,  // measure 57
0001
0100
1000
0001
,  // measure 58
0010
0000
0100
0000
0010
0100
0010
0000
,  // measure 59
1001
0000
0000
0000
;

//---------------dance-single - ----------------
#NOTES:
     dance-single:
     :
     Easy:
     4:
     0.290,0.383,0.020,0.264,0.000: // measure 1
0000
0000
0000
0000
,  // measure 2
0000
0000
0000
0000
,  // measure 3
0000
0000
0000
0000
,  // measure 4
0000
0000
0000
0000
,  // measure 5
1000
0000
0001
1000
,  // measure 6
0001
0000
1000
0001
,  // measure 7
1000
0000
0001
0000
,  // measure 8
0010
0000
0100
0000
,  // measure 9
1000
0000
0000
0000
,  // measure 10
0000
0000
0000
0000
,  // measure 11
2000
0010
3100
0000
,  // measure 12
0002
0010
0103
0000
,  // measure 13
0020
1000
0031
0000
,  // measure 14
0200
0001
1300
0000
,  // measure 15
0002
0100
0013
0000
,  // measure 16
2000
0010
3100
0000
,  // measure 17
0020
0001
0130
0000
,  // measure 18
0200
1000
0301
0000
,  // measure 19
1000
0001
1000
0000
,  // measure 20
0001
0100
0001
0000
,  // measure 21
0010
0100
1000
0000
,  // measure 22
0001
0100
0010
0000
,  // measure 23
1000
0100
1000
0100
,  // measure 24
0010
0001
0100
0010
,  // measure 25
1000
0001
0100
0010
,  // measure 26
1000
0000
0001
0000
,  // measure 27
1000
0100
1000
0100
,  // measure 28
0010
0001
0010
0001
,  // measure 29
0100
0010
0100
0010
,  // measure 30
1000
0000
0000
0000
,  // measure 31
0001
0010
0001
0000
,  // measure 32
1000
0100
2000
3010
,  // measure 33
0001
0010
0001
1000
,  // measure 34
1001
0000
0000
0000
,  // measure 35
2000
3200
0320
0032
,  // measure 36
0103
0100
0100
0100
,  // measure 37
0020
2030
3002
0203
,  // measure 38
0310
0010
0010
0010
,  // measure 39
2000
3200
0320
0032
,  // measure 40
1003
0001
1000
0001
,  // measure 41
0200
0320
2030
3002
,  // measure 42
0000
0003
0000
0000
,  // measure 43
1000
0100
1000
0000
,  // measure 44
0001
0100
0010
1000
,  // measure 45
0001
0010
0100
0000
,  // measure 46
1000
0001
1000
0010
,  // measure 47
0100
0001
1000
0000
,  // measure 48
0100
0010
0001
1000
,  // measure 49
0010
1000
0001
2000
,  // measure 50
0000
3000
0000
0000
,  // measure 51
1000
0001
1000
0001
,  // measure 52
0010
0010
0010
0010
,  // measure 53
0001
1000
0001
1000
,  // measure 54
0100
0100
0100
0100
,  // measure 55
1000
0010
1000
0010
,  // measure 56
0001
0001
0001
0001
,  // measure 57
1000
0010
1000
0010
,  // measure 58
1000
1000
0001
0001
,  // measure 59
1001
0000
0000
0000
;
