#TITLE:ROKING SUN;
#SUBTITLE:(DELACTION REMIX);
#ARTIST:KHUBILAI KHAN;
#TITLETRANSLIT:;
#SUBTITLETRANSLIT:;
#ARTISTTRANSLIT:;
#CREDIT:;
#BANNER:ROKING SUN (Delaction Remix).png;
#BACKGROUND:ROKING SUN (Delaction Remix)-bg.png;
#LYRICSPATH:;
#CDTITLE:Exit Trance.png;
#MUSIC:ROKING SUN (Delaction Remix).ogg;
#OFFSET:-0.012;
#SAMPLESTART:54.758;
#SAMPLELENGTH:12.000;
#SELECTABLE:YES;
#BPMS:0.000=143.000;
#STOPS:;
#BGCHANGES:;

//---------------dance-single - ----------------
#NOTES:
     dance-single:
     :
     Hard:
     8:
     0.473,0.606,0.349,0.099,0.057:
0000
0000
0000
0000
,
0000
0000
0000
0000
,
0000
0000
0000
0000
,
0000
0000
0000
0000
,
0000
0000
0000
0000
,
0000
0000
0000
0000
,
0000
0000
0000
0000
,
0000
0000
0000
0000
,
0010
1000
0100
0000
0010
0001
0100
0000
,
1000
0010
0100
0001
0110
0000
1001
0000
,
1000
0100
0010
0000
0001
0100
0010
0000
,
0001
0100
0010
1000
0110
0000
1001
0000
,
1000
0010
0100
0000
0001
0100
1000
0000
,
0010
1000
0100
0001
0110
0000
1001
0000
,
0010
0000
0100
0000
0010
0100
0010
0000
1000
0000
0001
0000
1000
0001
1000
0000
,
0001
0010
0001
0000
1000
0000
0001
0000
0110
0000
0000
0000
1001
0000
0000
0000
,
1100
0000
0011
0000
1000
0001
0100
0000
,
1010
0000
0101
0000
0010
1000
0001
0000
,
1000
0100
0010
0000
0001
0100
0010
0000
,
1000
0000
0100
0010
0001
0000
0000
0000
,
0011
0000
1100
0000
0001
1000
0100
0000
,
0101
0000
1001
0000
0100
0010
1000
0000
,
0100
0010
0001
0000
1000
0010
0100
0001
,
1000
0000
0001
0010
0100
0000
0000
0000
,
1100
0000
1001
0000
0001
1000
0010
0000
,
0101
0000
1010
0000
0100
0001
1000
0000
,
0011
0000
1100
0000
0010
0001
0100
0010
,
1000
0000
0001
0100
0010
0000
0000
0000
,
1000
0010
0100
0001
1000
0100
0010
0000
,
0001
0010
1000
0010
0001
0000
1000
0010
,
1000
0100
0001
0000
1000
0100
0001
0000
,
2002
0000
0000
3003
,
1001
0000
0000
0000
,
0010
1000
0100
1000
0001
1000
0100
1000
,
0001
0100
0001
0010
0001
1000
0001
0000
,
0100
0010
0100
1000
0100
0010
0100
0001
,
1000
0100
0010
0100
1000
0001
1000
0000
,
0100
0010
0100
0001
0100
0010
0100
1000
,
0010
0001
0010
0100
0010
1000
0010
0000
,
1100
0000
0000
0110
0000
0000
0001
0000
,
0101
0000
0000
1010
0000
0010
1000
0001
,
0011
0000
0000
1001
0000
0000
0100
0000
,
1001
0000
0000
1010
0000
0010
1000
0100
,
1000
0001
0100
0000
0010
1000
0001
0000
,
0010
0100
1000
0001
0020
0000
0000
0000
,
0000
0030
0010
0000
,
0000
0000
1001
0000
,
0000
0000
0000
0000
0010
0000
1000
0100
,
0000
0010
0001
0000
0010
0001
1000
0001
,
0000
0100
1000
0000
0010
0000
0001
1000
,
0000
0010
0100
0000
0001
0100
0010
1000
,
0000
1000
0001
0000
1000
0100
0010
0000
,
1000
0100
0010
0000
1000
0100
0010
0000
,
1000
0100
0010
0000
1000
0100
1000
0100
,
1000
0100
1000
0100
0020
0000
0000
0000
,
0000
0000
0030
0000
0001
0010
1000
0010
,
0100
1000
0010
0100
0001
0000
1000
0000
,
0010
0100
0010
0100
0020
0000
0000
0000
1030
0000
0001
0000
0100
0000
0010
0000
,
1000
0000
0100
0000
0001
0000
0000
0000
1000
0100
0000
1000
0100
0000
0010
0001
,
0000
0010
0001
0000
0100
0000
0010
0000
1000
0000
0100
0000
0001
0000
0100
0000
,
0010
0001
0100
0010
1000
0000
0001
0000
,
1000
0100
1000
0100
2000
0000
0000
0000
3001
0000
0100
0000
0010
0000
1000
0000
,
0100
0000
0010
0000
0010
0000
0010
0000
0001
0000
1000
0001
0000
1000
0001
0000
,
0100
0000
1001
0000
1000
0100
0010
0001
,
0100
0000
0010
0000
0010
0000
0010
0000
1000
0100
1000
0000
0001
0000
0010
0002
,
0000
0000
0000
0000
,
0020
0000
0000
0033
,
0011
0000
0000
0000
,
1001
0000
0001
0100
1001
0000
1000
0100
,
1001
0000
0010
0100
0110
0000
1001
0000
,
0110
0000
0001
1000
0110
0000
1000
0001
,
0110
0000
1000
0001
1001
0000
0110
0000
,
1000
0001
1000
0001
1000
0001
1000
0001
,
0100
0010
0100
0010
0200
0000
0010
0000
,
0301
2000
3001
2000
,
3001
0000
2000
0000
3001
0020
0100
0030
,
1001
0000
0000
0000
;

//---------------dance-single - ----------------
#NOTES:
     dance-single:
     :
     Medium:
     6:
     0.411,0.492,0.046,0.175,0.000:
0000
0000
0000
0000
,
0000
0000
0000
0000
,
0000
0000
0000
0000
,
0000
0000
0000
0000
,
0000
0000
0000
0000
,
0000
0000
0000
0000
,
0000
0000
0000
0000
,
0000
0000
0000
0000
,
1000
0100
1000
0000
0100
0010
0100
0000
,
0010
0001
0010
0001
0020
0000
0001
0000
,
0031
0100
0001
0000
0100
0010
0100
0000
,
0010
1000
0010
1000
0020
0000
1000
0000
,
1030
0001
1000
0000
0010
0100
0010
0000
,
0100
0001
0100
0001
0200
0000
0001
0000
,
0301
0100
0101
0000
1000
0100
1100
0000
,
0100
0010
0100
0010
0100
0000
1001
0000
,
1000
0100
1000
0001
0010
0100
0000
0100
,
1000
0010
1000
0010
1000
0010
0000
0100
,
0001
0010
0001
0010
0001
0000
1000
0001
,
0100
0000
0010
0010
0010
0000
0000
0010
,
1000
0001
1000
0001
1000
0001
0000
0001
,
0100
0010
0100
0010
0100
0010
0000
0010
,
1000
0100
0010
0001
0100
0000
0010
1000
,
0001
0000
1000
1000
1000
0000
0000
0000
,
0010
1000
0001
0100
0010
1000
0000
0100
,
0010
0001
1000
0100
0010
0001
0000
0010
,
0100
1000
0100
1000
0100
1000
0100
0010
,
0001
0100
0100
0000
,
0100
0010
1000
0010
0100
0010
1000
0010
,
0100
0000
0001
1000
0000
0000
0000
0000
,
0001
0010
0100
0010
0001
0010
0100
0010
,
0002
0000
0000
0000
,
0013
0000
0000
0000
,
1000
0100
1000
0100
0010
0001
0010
0001
,
0100
0001
0100
0001
1000
0010
1000
0000
,
0001
0010
0001
0010
0100
1000
0100
1000
,
0001
0100
0001
0000
1000
0010
1000
0000
,
0001
1000
0001
1000
0010
0100
0010
0100
,
0001
0010
0001
0010
0000
0001
1000
0010
,
0200
0000
0000
0301
0000
0000
0000
0000
,
0020
0000
0000
0130
0000
0000
1000
0000
,
0200
0000
0000
0310
0000
0000
0000
0000
,
0002
0000
0000
0013
0000
0000
0100
0000
,
1000
0010
0100
0000
0001
1000
0100
0000
,
0010
0001
1000
0001
0020
0000
0000
0000
,
0000
0030
0010
0000
,
0000
0000
1001
0000
,
0000
0000
0000
0000
1000
0000
0000
1000
,
0000
1000
0001
0000
0000
0001
0000
0001
,
0000
1000
0001
1000
0010
0000
0000
0010
,
0000
0010
0100
0000
0000
0100
0000
0100
,
0000
0100
0001
0100
0010
1000
0010
0000
,
0010
1000
0010
0000
0010
1000
0010
0000
,
0010
1000
0010
0000
0010
1000
0010
1000
,
0010
1000
0010
1000
0020
0000
0000
0000
,
0000
0030
1000
0100
,
0010
0001
0001
0100
,
0010
2000
3001
0010
,
0100
1000
0001
0100
,
0010
0000
1000
1000
0001
0000
0010
0000
,
0100
1000
0001
0100
,
0010
1000
0010
0000
1000
0100
0010
0001
,
1000
0000
0001
0000
0100
0010
1000
0001
,
0100
0000
0010
0000
1000
0100
0010
0000
,
0001
0100
0010
0000
1000
0001
0100
0010
,
2000
0000
0000
0000
,
0200
0000
0000
3300
,
1100
0000
0000
0000
,
0001
0100
0010
0100
0001
0100
0010
0100
,
0001
0100
0010
0100
0002
0000
2003
0000
,
3100
0010
0100
1000
0100
0010
0100
1000
,
0100
0010
0100
1000
0200
0000
0320
0000
,
0031
1000
0001
0000
1000
0001
1000
0000
,
0001
1000
0001
0000
0200
0000
0320
0000
,
1030
0002
1003
0002
,
1003
0002
0003
0200
,
0310
1001
0000
0000
;

//---------------dance-single - ----------------
#NOTES:
     dance-single:
     :
     Easy:
     3:
     0.233,0.346,0.068,0.023,0.000: // measure 1
0000
0000
0000
0000
,  // measure 2
0000
0000
0000
0000
,  // measure 3
0000
0000
0000
0000
,  // measure 4
0000
0000
0000
0000
,  // measure 5
0000
0000
0000
0000
,  // measure 6
0000
0000
0000
0000
,  // measure 7
0000
0000
0000
0000
,  // measure 8
0000
0000
0000
0000
,  // measure 9
1000
0100
1000
0100
,  // measure 10
0010
0001
0010
0010
,  // measure 11
0001
0100
0001
0100
,  // measure 12
0010
1000
0010
0010
,  // measure 13
0100
0001
0100
0010
,  // measure 14
0100
0001
0010
0010
,  // measure 15
0001
0000
0000
0000
,  // measure 16
1000
1000
1000
0000
,  // measure 17
0001
0100
0010
0010
,  // measure 18
0100
0010
1000
1000
,  // measure 19
0100
0010
0001
0001
,  // measure 20
0001
0000
0000
0000
,  // measure 21
1000
0010
0100
0100
,  // measure 22
0001
1000
0100
0100
,  // measure 23
0010
0001
1000
1000
,  // measure 24
1000
0000
0000
0000
,  // measure 25
0010
0100
1000
1000
,  // measure 26
0100
0001
0010
0010
,  // measure 27
0100
1000
0001
0001
,  // measure 28
0001
0000
0000
0000
,  // measure 29
1000
1000
0001
0001
,  // measure 30
0100
0100
0010
0010
,  // measure 31
0110
0110
1001
1001
,  // measure 32
0110
0000
0000
0000
,  // measure 33
1001
0000
0000
0000
,  // measure 34
0010
1000
0001
0100
,  // measure 35
0001
0010
0100
1000
,  // measure 36
0001
0100
0010
0100
,  // measure 37
0001
1000
1000
1000
,  // measure 38
0100
0010
0001
0010
,  // measure 39
0100
1000
0001
0100
,  // measure 40
0100
0000
0001
1000
,  // measure 41
0100
0000
0010
0001
,  // measure 42
1000
0000
0010
0100
,  // measure 43
0001
0000
1000
0000
,  // measure 44
0100
0100
1000
0000
,  // measure 45
0001
0001
0200
0000
,  // measure 46
0000
0000
0310
0000
,  // measure 47
0000
0000
1000
0000
,  // measure 48
0000
0000
0100
1000
,  // measure 49
0000
0000
0100
0000
,  // measure 50
0000
0000
0010
0001
,  // measure 51
0000
0000
0100
0000
,  // measure 52
0000
0000
0010
0100
,  // measure 53
0000
0000
0010
0000
,  // measure 54
0000
0000
1000
0000
,  // measure 55
1000
0000
2000
0000
,  // measure 56
0000
3000
0001
0100
,  // measure 57
0001
0000
1000
0100
,  // measure 58
0010
0001
1000
0010
,  // measure 59
1000
0000
0001
0100
,  // measure 60
0010
1000
0001
0010
,  // measure 61
0001
0000
1000
0100
,  // measure 62
0010
0001
1000
1000
,  // measure 63
0001
0001
0100
0100
,  // measure 64
0010
1001
1000
0100
,  // measure 65
0010
0001
1000
1000
,  // measure 66
0020
0000
0000
0000
,  // measure 67
0130
0000
0000
0000
,  // measure 68
1001
0000
0000
0000
,  // measure 69
1000
0100
1000
0100
,  // measure 70
0010
0001
0010
0010
,  // measure 71
0001
0100
0001
0100
,  // measure 72
0010
1000
0010
0010
,  // measure 73
1000
0100
1000
0100
,  // measure 74
0010
0001
0010
0010
,  // measure 75
0001
0000
0000
0000
,  // measure 76
0100
0000
0010
0100
,  // measure 77
1001
0000
0000
0000
;
