#TITLE:RIO;
#SUBTITLE:;
#ARTIST:DURAN DURAN;
#TITLETRANSLIT:;
#SUBTITLETRANSLIT:;
#ARTISTTRANSLIT:;
#CREDIT:;
#BANNER:RIO.png;
#BACKGROUND:RIO-bg.png;
#LYRICSPATH:;
#CDTITLE:GREATEST.png;
#MUSIC:RIO.mp3;
#OFFSET:-0.028;
#SAMPLESTART:51.143;
#SAMPLELENGTH:16.000;
#SELECTABLE:YES;
#DISPLAYBPM:140.000;
#BPMS:0.000=139.800,16.000=140.850,32.000=140.350,48.000=140.900,64.000=140.500,80.000=140.550,96.000=140.250,112.000=140.500,144.000=140.800,160.000=140.300,176.000=141.000,188.000=140.600;
#STOPS:;
#BGCHANGES:;

//---------------dance-single - ----------------
#NOTES:
     dance-single:
     :
     Hard:
     7:
     0.411,0.423,0.136,0.021,0.136: // measure 1
0000
0000
0000
0000
,  // measure 2
0000
0000
0000
0000
,  // measure 3
0000
0000
0000
0000
,  // measure 4
0000
0000
0000
0000
,  // measure 5
1000
0000
0000
0010
0000
0000
0100
0000
0000
0000
0001
0000
0010
0000
0100
0000
,  // measure 6
1000
0000
0000
0001
0000
0000
1000
0000
0000
0000
0100
0000
0010
0000
0001
0000
,  // measure 7
1000
0000
0000
0001
0000
0000
0100
0000
0000
0000
0010
0000
1000
0000
0001
0000
,  // measure 8
0010
0000
0000
0100
0000
0000
1000
0000
0000
0000
0100
0000
0010
0000
0001
0000
,  // measure 9
1000
0000
0000
0001
0000
0000
0100
0000
0000
0000
0001
0000
1000
0000
0010
0000
,  // measure 10
1000
0000
0000
0100
0000
0000
0010
0000
0000
0000
0001
0000
1000
0000
0100
0000
,  // measure 11
0010
0000
0000
0001
0000
0000
0100
0000
0000
0000
0001
0000
1000
0000
0100
0000
,  // measure 12
1000
0000
0000
0010
0000
0000
0100
0000
0000
0000
0001
0000
1000
0000
0001
0000
,  // measure 13
1000
0000
0010
0100
0001
0000
0010
0000
,  // measure 14
0100
1000
0010
0000
0100
1000
0010
0000
,  // measure 15
0100
0000
0100
0000
0001
0010
0000
0000
,  // measure 16
0100
0000
0000
0000
0000
0000
1000
0000
0000
0000
0000
0000
0100
1000
0100
1000
,  // measure 17
0010
0000
1000
0010
0100
0000
0001
0000
,  // measure 18
1000
0100
0001
0000
1000
0100
0001
0000
,  // measure 19
0100
0000
1000
0000
0010
0100
0000
0000
,  // measure 20
0001
0000
0000
1000
0000
0000
0010
0000
,  // measure 21
0001
0100
0010
1000
0000
0000
0000
0000
,  // measure 22
1000
0100
0010
0001
0000
0000
0000
0000
,  // measure 23
0001
0010
0100
0000
1000
0001
0000
0000
,  // measure 24
0100
0000
0000
0000
0000
0000
0010
0000
0000
0000
0000
0000
1000
0100
1000
0100
,  // measure 25
0010
0000
0100
1000
0001
0000
0100
0000
,  // measure 26
0010
1000
0100
0000
0010
1000
0100
0000
,  // measure 27
0010
0001
0100
0001
,  // measure 28
1000
0000
0000
0101
0000
0000
1000
0000
,  // measure 29
0110
0000
0000
0000
,  // measure 30
0000
0000
0000
0000
0000
0000
0000
0000
0010
0100
0000
0000
0100
0010
0000
0000
,  // measure 31
1000
0000
0001
1000
0000
1000
0010
0100
,  // measure 32
0001
0000
0000
0000
0000
0000
0001
0000
0100
0000
0000
0010
0000
0000
1000
0000
,  // measure 33
0001
0000
0010
0100
0000
0100
1000
0001
,  // measure 34
0100
0000
0000
1000
0010
0100
0001
0100
,  // measure 35
0010
0000
1000
0001
0000
0001
0010
0100
,  // measure 36
1000
0000
0000
0000
0000
0000
0010
0000
0100
0000
0000
0001
0000
0000
1000
0000
,  // measure 37
0010
0000
1000
0100
1000
0001
0000
0010
,  // measure 38
0100
0000
0000
1000
0010
0000
0000
0100
,  // measure 39
0001
0000
1000
0100
0000
1000
0010
0100
,  // measure 40
0001
0000
0000
0000
0000
0000
0100
0000
0010
0000
0000
1000
0000
0000
0001
0000
,  // measure 41
0110
0000
0110
0000
0010
0100
0010
0000
,  // measure 42
1001
0000
0000
0000
0010
1000
0100
1000
,  // measure 43
0010
0000
0010
0100
0000
0100
0001
1000
,  // measure 44
0100
0000
0000
0000
0000
0000
0010
0000
0001
0000
0000
1000
0000
0000
0010
0000
,  // measure 45
0200
0000
0301
1000
0000
0000
0000
0000
,  // measure 46
0200
0000
1300
0001
0000
0000
0000
0000
,  // measure 47
1000
0000
0000
0001
0000
0000
0101
0000
0000
0000
0001
0000
0010
0000
0100
0000
,  // measure 48
1000
0000
0000
0001
0000
0000
1001
0000
0000
0000
0001
0000
0010
0000
0100
0000
,  // measure 49
1000
0000
0000
0100
0000
0000
0011
0000
0000
0000
0001
0000
0100
0000
0010
0000
,  // measure 50
1000
0000
0000
0010
0000
0000
0110
0000
0000
0000
0001
0000
0010
0000
0100
0000
,  // measure 51
1000
0000
0000
0100
0000
0000
0101
0000
0000
0000
0100
0000
1000
0000
0010
0000
,  // measure 52
0100
0000
0000
0001
0000
0000
0101
0000
0000
0000
0001
0000
1000
0000
0100
0000
,  // measure 53
0010
0000
0000
0001
0000
0000
1100
0000
0000
0000
1000
0000
0010
0000
0100
0000
,  // measure 54
0001
0000
0000
1000
0000
0000
1100
0000
0000
0000
0010
0000
0100
0000
0001
0000
,  // measure 55
1000
0000
0000
0000
;

//---------------dance-single - ----------------
#NOTES:
     dance-single:
     :
     Medium:
     5:
     0.294,0.310,0.000,0.199,0.000:
0000
0000
0000
0000
,
0000
0000
0000
0000
,
0000
0000
0000
0000
,
0000
0000
0000
0000
,
1000
0000
0100
0000
1000
0000
0001
0100
,
0001
0000
0010
0000
0100
0000
1000
0001
,
1000
0000
0010
0000
0100
0000
0001
0100
,
0001
0000
0010
0000
0001
0000
1000
0010
,
1000
0000
0001
0000
0100
0000
0010
0100
,
0010
0000
1000
0000
0001
0000
1000
0001
,
1000
0000
0100
0000
0010
0000
0001
0010
,
0001
0000
0010
0000
0100
0000
1000
0010
,
1000
0000
0001
0010
,
0001
0000
0100
0000
0010
1000
0001
0000
,
0010
0000
0010
0000
0100
1000
0100
0000
,
0010
0000
0000
0001
0000
0000
0010
0000
,
0100
0000
1000
0010
0100
0000
0001
0000
,
1000
0000
0000
0010
,
1000
0000
0100
0000
1000
0010
0000
0000
,
0100
0000
0000
0010
0000
0000
1000
0000
,
0001
0100
0010
1000
0000
0000
0000
0000
,
1000
0100
0010
0001
0000
0000
0000
0000
,
1000
0010
1000
0001
,
0100
0000
0000
0001
0000
0000
0100
0000
,
0010
0000
1000
0001
0000
0000
1000
0000
,
0010
0000
0100
0001
0000
0000
0100
0000
,
0010
0010
1000
1000
,
0001
0000
0000
0010
0000
0000
0001
0000
,
1000
0000
0000
0000
,
0000
0000
0001
0001
,
2000
0000
0000
0000
3000
0010
0100
0001
,
0020
0000
0000
0030
,
0200
0000
0000
2300
,
0020
0000
0000
0000
0000
3030
0000
0100
,
0002
0000
0000
0000
0003
0000
0001
1000
,
0020
0000
0000
0030
,
0200
0000
0000
0002
,
0300
0020
0000
0033
,
0200
0000
0000
0000
0300
1000
0100
1000
,
0020
0000
0000
0030
,
0200
0000
0000
0300
,
0002
0000
2003
0000
,
3200
0000
0000
0000
0300
0000
0100
1000
,
0020
0000
0000
0030
,
0020
0000
1030
0001
0000
0000
0000
0000
,
0020
0000
0031
1000
0000
0000
0000
0000
,
0010
0000
1000
0000
0001
0100
0001
0000
,
0010
0000
0001
0000
1000
0010
0100
0000
,
0001
0000
0010
0000
0100
1000
0100
0000
,
0010
0000
0001
0000
1000
0001
1000
0000
,
0010
0000
0100
0000
0001
0010
0001
0000
,
1000
0000
0100
0000
1000
0001
1000
0000
,
0010
0000
0010
0000
0100
0001
0100
0000
,
0010
0000
0010
0000
1000
0001
1000
0000
,
0100
0000
0000
0000
;

//---------------dance-single - ----------------
#NOTES:
     dance-single:
     :
     Easy:
     3:
     0.185,0.226,0.000,0.000,0.000:
0000
0000
0000
0000
,
0000
0000
0000
0000
,
0000
0000
0000
0000
,
0000
0000
0000
0000
,
1000
0000
0000
0001
0000
0000
0100
0000
,
0010
0000
0000
1000
0000
0000
0001
0000
,
0010
0000
0000
0100
0000
0000
1000
0000
,
0001
0000
0000
0100
0000
0000
0010
0000
,
1000
0000
0000
0100
0000
0000
1000
0000
,
0001
0000
0000
0100
0000
0000
0001
0000
,
0010
0000
0000
0100
0000
0000
1000
0000
,
0001
0000
0000
0100
0000
0000
0010
0000
,
1000
0000
0001
0000
,
1000
1000
1000
0010
,
0100
0000
0000
0000
,
0010
0000
0000
0010
,
1000
0001
1000
0100
,
0000
0001
0000
1000
,
0010
0100
0001
0000
,
0100
0000
0000
0010
0000
0000
0100
0000
,
0010
0000
0000
1000
0000
0000
0100
0000
,
0010
0000
0000
0001
0000
0000
0000
0000
,
1000
0010
1000
0001
,
0100
0000
0000
0000
,
0010
1000
0001
1000
,
0010
0010
0010
0000
,
0100
0100
0000
0100
,
0100
0000
0000
0000
,
0010
0000
0000
0000
,
0000
0000
0100
0100
,
0010
0000
0000
0001
,
0100
0000
0000
0000
,
0010
0000
0000
0010
,
1000
0000
0000
1000
,
0100
0000
0000
0010
,
0001
0000
0000
0000
,
0100
0000
0000
0000
,
0001
0000
0010
0000
,
0100
0000
0000
1000
,
0010
0000
0000
0000
,
0100
0100
0100
0100
,
0100
0000
0000
0000
,
0001
0000
0000
0010
,
0100
0000
0000
0000
,
1000
0010
0100
0000
,
0001
0010
0100
0000
,
1000
0000
0000
0010
0000
0000
1000
0000
,
0001
0000
0000
0010
0000
0000
0001
0000
,
0010
0000
0000
0100
0000
0000
0010
0000
,
0001
0000
0000
1000
0000
0000
0001
0000
,
1000
0000
0000
0010
0000
0000
1000
0000
,
0001
0000
0000
0100
0000
0000
0001
0000
,
0010
0000
0000
0100
0000
0000
0010
0000
,
0001
0000
0000
1000
0000
0000
0001
0000
,
0100
0000
0000
0000
;

//---------------dance-single - ----------------
#NOTES:
     dance-single:
     :
     Beginner:
     1:
     0.091,0.141,0.000,0.000,0.000:
0000
0000
0000
0000
,
0000
0000
0000
0000
,
0000
0000
0000
0000
,
0000
0000
0000
0000
,
1000
0000
0000
0000
,
0001
0000
0000
0000
,
0010
0000
0000
0000
,
0100
0000
0000
0000
,
1000
0000
0000
0000
,
0010
0000
0000
0000
,
1000
0000
0000
0000
,
0100
0000
0000
0000
,
0010
0000
0010
0000
,
0010
0000
0000
0000
,
0001
0000
0000
0000
,
0000
0000
0000
0000
,
0100
0000
0100
0000
,
0100
0000
0000
0000
,
0010
0000
0000
0000
,
0000
0000
0000
0000
,
1000
0000
0001
0000
,
1000
0000
0000
0000
,
0010
0000
0000
0000
,
0000
0000
0000
0000
,
0100
0000
0010
0000
,
0100
0000
0000
0000
,
0001
0000
0000
0000
,
0000
0000
0000
0000
,
1000
0000
0000
0000
,
0000
0000
0001
0001
,
0001
0000
0000
0000
,
1000
0000
0000
0000
,
0010
0000
0000
0000
,
1000
0000
0000
0000
,
0100
0000
0000
0000
,
0010
0000
0000
0000
,
0001
0000
0000
0000
,
1000
0000
1000
0000
,
1000
0000
0000
0000
,
0010
0000
0000
0000
,
0100
0000
0000
0000
,
0001
0000
0000
0000
,
0010
0000
0000
0000
,
0100
0000
0000
0000
,
1000
0000
0001
0000
,
0100
0000
0000
0000
,
0010
0000
0000
0010
,
0010
0000
0000
0010
,
0010
0000
0000
0010
,
0010
0000
0000
0000
,
1000
0000
0000
1000
,
1000
0000
0000
1000
,
1000
0000
0000
1000
,
1000
0000
0000
1000
,
1000
0000
0000
0000
;
