#TITLE:RAINBOW;
#SUBTITLE:;
#ARTIST:DANNY ROCK;
#TITLETRANSLIT:;
#SUBTITLETRANSLIT:;
#ARTISTTRANSLIT:;
#CREDIT:;
#BANNER:RAINBOW.png;
#BACKGROUND:RAINBOW-bg.png;
#LYRICSPATH:;
#CDTITLE:cdtitle.png;
#MUSIC:RAINBOW - DANNY ROCK.mp3;
#OFFSET:-6.220;
#SAMPLESTART:47.622;
#SAMPLELENGTH:12.000;
#SELECTABLE:YES;
#BPMS:0.000=160.000;
#STOPS:;
#BGCHANGES:;

//---------------dance-single - ----------------
#NOTES:
     dance-single:
     :
     Hard:
     7:
     0.501,0.478,0.497,0.132,0.000:
2001
0000
0000
3001
0000
0000
0000
0000
,
2010
0000
0000
3010
0000
0000
0000
0000
,
0201
0301
1002
1003
,
0100
0010
0001
0100
0000
0000
0000
0000
,
0010
1000
0100
0000
1010
0000
1001
0000
,
0001
0100
0010
0000
1010
0000
1001
0000
,
0100
0010
0001
0000
1000
0100
1000
0010
,
1000
0001
0100
0010
1000
0001
0010
0000
,
0001
0100
0001
0000
1010
0000
1001
0000
,
1000
0100
1000
0000
1010
0000
1001
0000
,
0001
0100
0010
0000
1000
0100
0010
0001
,
0100
0010
1000
0100
1000
0001
0010
0001
,
0100
0010
1000
0100
,
1000
0001
0010
0001
1000
0100
1000
0000
,
0001
0001
1000
0000
0100
0100
1000
0000
,
0010
0100
0001
0000
1000
0000
0000
0000
,
0001
0010
0100
0010
,
0001
0000
1000
0100
1000
0001
0100
0001
,
1000
0100
0010
1000
,
0011
0000
0000
0000
,
1001
1001
0010
0100
,
0001
0000
1000
0100
0010
0001
0100
0000
,
1010
1010
0001
0010
,
0100
1000
0010
0100
0001
1000
0100
0000
,
0110
0110
1000
0100
,
0010
0001
0100
0000
1000
0100
1000
0000
,
0001
0000
0000
1000
0001
0000
0000
1000
,
0001
0000
1000
0000
1001
0000
0001
0100
,
0020
1000
0100
1030
,
0001
1000
0001
0000
1001
0000
0010
0000
,
1100
1001
1100
0011
,
0001
0100
0010
0000
1000
0000
0100
0010
,
0002
1000
0100
1003
,
0001
0100
0001
0000
1001
0000
0000
0000
,
0100
0011
0100
0000
,
1000
0000
0110
0000
0001
0000
0010
0100
,
2000
0001
0100
3001
,
1000
0100
1000
0000
1010
0000
0001
0000
,
1100
1010
1001
0010
,
0100
0001
0000
0101
0000
1000
1000
0000
,
2001
0001
0100
3001
,
0010
0100
1000
0000
1001
0000
0000
0000
,
1000
0101
0010
0000
,
1000
0110
1000
0000
,
0002
2003
3002
0003
,
0100
0010
1000
0100
0000
0010
0001
0000
,
1001
0000
1010
0000
0001
0100
0010
0000
,
1010
0000
1001
0000
0010
0100
0001
1000
,
0000
0100
0010
0000
0001
0100
0010
0000
,
1000
0100
0010
0001
1000
0100
1000
0000
,
0011
0000
1001
0000
0001
0100
0010
0000
,
1010
0000
1001
0000
0001
0100
0010
1000
,
0000
0100
0010
0000
0001
0100
0010
0000
,
1000
0001
0010
0100
1000
0010
1000
0200
,
0000
0300
0000
0000
0000
0000
0000
0000
;

//---------------dance-single - ----------------
#NOTES:
     dance-single:
     :
     Easy:
     4:
     0.325,0.415,0.254,0.155,0.000:
1001
0000
1000
0000
,
1001
0000
0001
0000
,
1000
0100
1000
0001
,
0110
0000
0000
0000
,
0001
1000
0200
1300
,
0001
0010
0002
0103
,
0000
0010
1000
0100
,
1000
0001
0010
0001
,
0100
1000
0020
0130
,
0001
0010
0200
1300
,
0000
0010
0000
0100
,
0001
1000
0100
1000
,
1001
0100
1000
0100
,
0001
0000
0100
0000
,
0010
1000
0100
0100
,
1000
0000
1000
0000
,
0001
0010
0001
0100
,
0010
0000
1000
0000
,
0100
1000
0001
0001
,
0010
0000
2002
3003
,
1000
0100
1000
0000
,
1000
0001
0010
0010
,
1001
0000
0100
0000
,
0010
1000
0100
0001
,
0100
0000
1000
0000
,
0001
0010
0001
1000
,
1001
0000
0001
0000
,
1000
0000
0001
1000
,
1002
0000
1003
0000
,
0100
0010
0001
1000
,
1001
1001
0100
0100
,
1001
1001
0010
1000
,
0210
0000
0310
0000
,
1000
0001
0010
0000
,
0100
0001
1001
0000
,
0100
0010
1001
0100
,
2001
0000
3001
0000
,
0010
0100
1000
0010
,
0110
0110
1000
1000
,
0110
0110
0001
1000
,
0120
0000
0130
0000
,
0001
0010
0100
0000
,
1000
0001
1001
0000
,
0010
0100
0110
0000
,
1000
0000
1000
0000
,
0001
0000
0000
0000
,
1000
0100
0020
0130
,
1000
0001
0200
0310
,
0000
1000
0100
1000
,
0001
0001
0100
0010
,
1000
0100
0020
0031
,
0100
0010
2000
3001
,
0000
0100
0000
0010
,
1000
0100
0010
0001
;

//---------------dance-single - Copied from ----------------
#NOTES:
     dance-single:
     Copied from:
     Medium:
     6:
     0.432,0.418,0.287,0.055,0.000: // measure 1
1000
0000
0000
1000
0000
0000
0000
0000
,  // measure 2
0001
0000
0000
0001
0000
0000
0000
0000
,  // measure 3
1000
1001
0110
1001
,  // measure 4
0100
0010
1000
0100
0000
0000
0000
0000
,  // measure 5
1000
0100
0001
0000
0100
0000
0100
0000
,  // measure 6
1000
0010
0100
0000
0010
0000
0010
0000
,  // measure 7
0000
1000
0001
0000
0001
0100
0000
0010
,  // measure 8
1000
0010
0100
0000
0001
0000
0001
0000
,  // measure 9
0010
0100
1000
0000
0100
0000
0100
0000
,  // measure 10
1000
0100
0001
0000
0100
0000
0100
0000
,  // measure 11
0000
1000
0010
0000
1000
0010
0000
0000
,  // measure 12
0010
0100
0001
1000
0100
1000
0001
0010
,  // measure 13
0001
1000
0100
0100
,  // measure 14
1000
0010
0100
0000
0001
0100
0001
0000
,  // measure 15
1000
0000
0100
0000
1000
0100
1000
0000
,  // measure 16
1001
0000
0010
0100
,  // measure 17
0001
0100
1000
0010
,  // measure 18
0100
0001
0100
0000
1000
0100
1000
0000
,  // measure 19
0010
0000
0100
0000
0001
0100
1000
0000
,  // measure 20
0100
0000
0010
0000
,  // measure 21
1001
1001
0010
0100
,  // measure 22
0001
0000
0100
0000
1000
0100
1000
0000
,  // measure 23
0001
0100
0010
1000
,  // measure 24
2001
3002
2003
3001
,  // measure 25
0010
0100
1000
0001
,  // measure 26
1001
1001
0010
0100
,  // measure 27
0002
0000
1003
0000
,  // measure 28
0100
0000
0100
0000
0100
0000
1000
0001
,  // measure 29
1000
0001
1001
0010
,  // measure 30
0100
0001
0100
0000
1001
0000
1000
0000
,  // measure 31
1010
1010
0001
0001
,  // measure 32
0101
0000
0011
0000
1000
0000
0100
0010
,  // measure 33
1000
0001
1001
0010
,  // measure 34
0100
0001
0100
0000
1001
0000
0000
0000
,  // measure 35
0100
0000
0100
0010
1000
0000
0001
0000
,  // measure 36
0010
0100
1000
0000
0001
1000
0010
0000
,  // measure 37
1010
0001
1010
0001
,  // measure 38
0010
0100
0001
0000
1001
0000
0100
0010
,  // measure 39
1000
1000
1001
0010
,  // measure 40
0100
0001
0000
1001
0000
0000
1000
0100
,  // measure 41
1000
1000
1001
0010
,  // measure 42
0100
0001
0100
0000
1000
0000
0000
0000
,  // measure 43
0100
0010
1000
0000
0001
0000
0100
0000
,  // measure 44
1010
1001
1010
0000
,  // measure 45
0001
0000
1000
0000
,  // measure 46
0100
0001
1000
0010
0000
0100
0001
0000
,  // measure 47
1000
0100
0001
0000
0100
0000
0100
0000
,  // measure 48
1000
0010
0100
0000
0010
0000
0010
0000
,  // measure 49
0000
1000
0001
0000
0001
0100
0000
0010
,  // measure 50
1000
0010
0100
0000
0001
0000
0001
0000
,  // measure 51
0010
0100
1000
0000
0100
0000
0100
0000
,  // measure 52
1000
0100
0001
0000
0100
0000
0100
0000
,  // measure 53
0000
1000
0010
0000
1000
0010
0000
0000
,  // measure 54
0010
0100
0001
1000
0100
1000
0001
0020
,  // measure 55
0000
0030
0000
0000
0000
0000
0000
0000
;
