#TITLE:RADIO;
#SUBTITLE:;
#ARTIST:SALT & PEPPER;
#TITLETRANSLIT:;
#SUBTITLETRANSLIT:;
#ARTISTTRANSLIT:;
#CREDIT:;
#BANNER:RADIO.png;
#BACKGROUND:RADIO-bg.png;
#LYRICSPATH:;
#CDTITLE:SUPER EUROBEAT 160.png;
#MUSIC:RADIO.mp3;
#OFFSET:-0.548;
#SAMPLESTART:51.820;
#SAMPLELENGTH:11.980;
#SELECTABLE:YES;
#BPMS:0.000=149.543;
#STOPS:;
#BGCHANGES:;

//---------------dance-single - ----------------
#NOTES:
     dance-single:
     :
     Hard:
     7:
     0.460,0.413,0.136,0.198,0.000: // measure 1
0000
0000
0000
0000
,  // measure 2
0000
0000
0000
0000
,  // measure 3
0001
1000
0001
0000
1000
0001
1000
0000
,  // measure 4
0011
0000
0100
1000
0000
0001
0100
0000
,  // measure 5
0001
0010
0100
0000
1000
0100
0010
0000
,  // measure 6
1000
0001
1000
0001
0100
0010
1000
0000
,  // measure 7
1000
0100
0010
0000
0001
0100
0010
0000
,  // measure 8
1010
0000
1000
0010
0000
0101
0000
0000
,  // measure 9
2000
0001
0100
3001
,  // measure 10
0002
1000
0100
1003
,  // measure 11
0010
0000
0001
0100
1000
0000
1000
0000
,  // measure 12
0100
0000
0001
0000
0010
0100
1000
0000
,  // measure 13
0020
0001
1000
0031
,  // measure 14
0200
0000
1000
0000
0001
0000
1300
0001
,  // measure 15
0000
0100
0020
0000
0030
0000
0000
0000
,  // measure 16
0000
0000
1001
0100
,  // measure 17
0002
0010
1000
0013
,  // measure 18
2000
0010
0001
3010
,  // measure 19
0100
0000
0001
0010
0100
0000
1000
0000
,  // measure 20
0100
0000
0001
0000
0100
0010
1000
0000
,  // measure 21
0012
0100
1000
0013
,  // measure 22
2010
0000
0100
0000
0001
0000
3010
0100
,  // measure 23
0000
0001
2000
0000
3000
0000
0000
0000
,  // measure 24
0000
0000
0000
0000
0001
1000
0001
0010
,  // measure 25
0100
0000
0100
0000
0100
1000
0001
1000
,  // measure 26
0010
0000
0010
0000
0010
1000
0001
0100
,  // measure 27
0001
0000
0001
0000
0001
1000
0100
1000
,  // measure 28
0010
0000
0010
0000
0010
1000
0100
0001
,  // measure 29
0100
0000
0100
0000
0100
0010
0001
0010
,  // measure 30
0001
0000
0001
0000
1000
0001
0100
0001
,  // measure 31
1000
0000
0110
0000
1000
0010
1000
0010
,  // measure 32
0000
1000
0001
1000
0000
0010
1000
0000
,  // measure 33
0001
0100
0010
0000
0001
0100
0010
0000
,  // measure 34
2000
3100
0002
0103
,  // measure 35
1000
0010
0100
0000
1000
0010
0100
0000
,  // measure 36
0002
0103
2000
3100
,  // measure 37
0010
0001
1000
0000
0010
0001
1000
0000
,  // measure 38
0002
0013
2000
3010
,  // measure 39
0100
1000
0010
0000
0100
1000
0010
0000
,  // measure 40
0100
0001
0100
0000
0001
1001
0000
0000
,  // measure 41
0001
0100
1000
0000
0001
0100
1000
0000
,  // measure 42
0001
1000
0001
1000
0001
0010
0100
0000
,  // measure 43
1000
0100
0001
0000
1000
0100
0001
0000
,  // measure 44
0110
0000
1000
0001
0000
1000
0100
0000
,  // measure 45
0010
0001
0100
0000
0001
1000
0100
0000
,  // measure 46
1000
0010
1000
0010
0100
0001
0100
0000
,  // measure 47
0001
0010
0100
0000
1000
0010
0100
0000
,  // measure 48
0101
0000
0010
0100
0000
1100
0000
0000
;

//---------------dance-single - ----------------
#NOTES:
     dance-single:
     :
     Medium:
     4:
     0.367,0.413,0.198,0.446,0.000:
0000
0000
0000
0000
,
0000
0000
0000
0000
,
0020
0030
0200
0300
,
1001
0000
0000
0010
0000
0100
0000
0000
,
0002
0003
2000
3000
,
0010
0010
0100
0100
,
0020
0030
0002
0003
,
1001
0000
0000
0101
0000
1100
0000
0000
,
0001
0001
0010
1000
,
0100
0001
1000
1000
,
0001
0001
0010
1000
,
0100
0001
1000
1000
,
0010
0010
1000
0001
,
0010
0100
1000
0010
,
0100
0001
0000
0000
,
0000
0000
0000
0000
,
0100
0100
1000
0010
,
0001
0100
1000
1000
,
0010
0010
1000
0100
,
0001
0010
1000
1000
,
0010
0010
0100
0001
,
0010
0100
1000
0010
,
0100
0001
0000
0000
,
0000
0000
0000
0000
0001
1000
0001
1000
,
0200
1300
0200
1300
,
0001
0010
1000
0110
,
0002
0103
0002
0103
,
0010
1000
0100
1001
,
0020
0130
2000
3001
,
0100
0100
0200
0300
,
2002
3003
0100
0010
,
0100
0001
0100
1100
,
0001
1001
1000
0001
,
0020
0230
0302
0023
,
0031
0110
1000
0001
,
2000
3002
0203
0320
,
1030
1100
0001
0100
,
0020
2030
3002
0203
,
0310
1010
0100
0001
,
0020
0000
0000
0000
0100
0130
0000
0000
,
2000
3000
0002
0003
,
0100
0010
1000
0100
,
2000
3000
0002
0003
,
1001
0000
0000
0010
0000
0100
0000
0000
,
0002
0003
0200
0300
,
0010
1000
0100
0001
,
0200
0300
0020
0030
,
1001
0000
0000
1100
0000
0101
0000
0000
;

//---------------dance-double - ----------------
#NOTES:
     dance-double:
     :
     Hard:
     7:
     0.483,0.502,0.248,0.136,0.062:
00000000
00000000
00000000
00000000
,
00000000
00000000
00000000
00000000
,
10000000
00100000
01000000
00000000
10000000
00100000
01000000
00000000
,
01010000
00000000
00100000
00001000
00000000
00011000
00000000
00000000
,
00000010
00000001
00000100
00000000
00000010
00000001
00000100
00000000
,
00000001
00000010
00000100
00001000
00000001
00000010
00000100
00010000
,
00001000
00100000
00010000
00000000
00001000
00100000
00010000
00000000
,
00011000
00000000
00100000
10000000
00000000
01010000
00000000
00000000
,
00010000
00000000
00000000
00000000
01000000
00000000
00000000
00000000
00100000
10000000
00000000
10000000
00100000
00000000
01000000
00000000
,
00010000
10000000
01000000
00010000
,
00001000
00000000
00010000
00001000
00000010
00000000
00001000
00000000
,
00000100
00000000
00000000
00000000
00000001
00000000
00000000
00000000
00001000
00000001
00000000
00000001
00001000
00000000
00000001
00000000
,
00000100
00000010
00001000
00000100
,
00010000
00001000
00010000
00000000
00001000
00000000
00010000
00000000
,
01000000
00002000
00020000
00033000
,
01000000
00000000
00000000
00000000
00010000
00000000
00000000
00000000
10000000
00010000
00000000
10000000
00010000
00000000
00000000
00000000
,
01000000
00100000
10000000
00010000
,
01000000
00000000
00000000
00000000
00100000
00000000
00000000
00000000
10000000
01000000
00000000
01000000
10000000
00000000
00010000
00000000
,
00100000
00001000
00010000
00000100
,
00001000
00000000
00000010
00000100
00000001
00000000
00000100
00000000
,
00001000
00000000
00000100
00000001
00000010
00001000
00010000
00000000
,
00000100
00001000
00010000
01000000
,
00010000
00000000
00000000
00000000
10000000
00000000
00000000
00000000
00010000
00100000
00000000
00100000
00010000
00000000
10000000
00000000
,
01000000
00000000
00010000
00000000
10000000
01000000
10000000
01000000
,
20000000
00100000
00010000
31000000
,
00010000
00000000
00100000
00000000
00001000
00010000
00001000
00010000
,
00002000
00000100
00010000
00003100
,
00000010
00000000
00000001
00000000
00001000
00000010
00001000
00000010
,
00002000
00000001
00000010
00003100
,
00000001
00000000
00000100
00000000
00001000
00010000
00001000
00010000
,
00001000
00000000
00100000
00000000
00010000
00001000
01000000
00010000
,
10000000
01000000
00010000
00001000
00000100
00001000
00010000
00000000
,
00001000
01001000
00010000
11000000
,
00100000
01000000
00010000
00000000
10000000
01000000
00100000
00000000
,
00010000
01010000
00100000
00110000
,
00001000
00010000
00000100
00000000
00002000
00000000
00003001
00000000
,
00000010
00001001
00000010
00000011
,
00001000
00000010
00000000
00000100
00000001
00001000
00000100
00000000
,
00010000
00011000
00000100
00010100
,
00001000
00010000
02000000
00000000
03100000
01100000
00000000
00000000
,
02010000
03100000
12000000
03100000
,
10000000
01000000
00010000
00001000
00010000
00000100
00001000
00000000
,
00001200
00010300
00021000
00030100
,
00001001
00000000
00001000
00000010
00000000
00000101
00000000
00000000
,
00000001
00000010
00000100
00000000
00000001
00000010
00000100
00000000
,
00000001
00000100
00001000
00010000
00001000
00010000
01000000
00000000
,
10000000
00100000
01000000
00000000
01000000
00100000
10000000
01000000
,
00100000
00000000
00001000
00010000
00000000
00001100
00000000
00000000
;

//---------------dance-double - ----------------
#NOTES:
     dance-double:
     :
     Medium:
     5:
     0.421,0.502,0.235,0.347,0.000:
00000000
00000000
00000000
00000000
,
00000000
00000000
00000000
00000000
,
00000001
00000100
00000001
00000000
00001000
00000100
00001000
00000000
,
00010000
00000000
00000000
01000000
00000000
00100000
00000000
00000000
,
10000000
01000000
10000000
00000000
00010000
01000000
00010000
00000000
,
00001000
00000100
00000010
00000001
,
00001000
00000100
00001000
00000000
00000001
00000100
00000001
00000000
,
00001000
00000000
00010000
00001000
00000000
00011000
00000000
00000000
,
10000000
01000000
00100000
01000000
,
10000000
01000000
00010000
00001000
,
00000100
00000001
00000010
00000001
,
00000100
00000001
00001000
00010000
,
01000000
00100000
10000000
11000000
,
00010000
00000000
00100000
00000000
00001000
00010000
00001000
00000000
,
00020000
00000200
00030300
00001000
,
00000000
00000010
00000000
00000100
,
00000001
00000010
00000100
00000010
,
00000001
00000010
00001000
00010000
,
00100000
10000000
01000000
10000000
,
00010000
01000000
00010000
00001000
,
00000100
00000010
00001000
00000101
,
00000010
00000000
00001000
00000000
00010000
00001000
00010000
00000000
,
00002000
02000000
03003000
00010000
,
00000000
00100000
00020000
20030000
,
30100000
10000000
01000000
00000000
00000000
00000000
00010000
00000000
,
00001000
00010000
00011000
00000000
,
00000100
00001000
00000001
00000000
00000000
00000000
00000100
00000000
,
00000010
00001000
00002020
00003030
,
00000100
00000001
00001000
00000000
00000000
00000000
00010000
00000000
,
01000000
00100000
02200000
03300000
,
10000000
00000000
11000000
00000000
00010000
10000000
00010000
00000000
,
10000000
01000000
00100000
00010000
00000000
00001000
00010000
00000000
,
00002200
00003300
00000202
00000303
,
00000010
00000001
00001000
00000000
00000100
00000000
00000010
00000000
,
00002200
00003300
00202000
00303000
,
00010000
00100000
10000000
00000000
01000000
00000000
00100000
00000000
,
00022000
00033000
00002002
00003003
,
00000010
00000100
00000010
00000100
00000001
00001000
00000001
00000000
,
00002200
00000000
00003300
00000000
00022000
00000000
00033000
02020000
,
00000000
03030000
10010000
00000000
01000000
00100000
00000000
00000000
,
10000000
00100000
10000000
00000000
00010000
00100000
00010000
00000000
,
00001000
00000010
00000100
00000001
,
00000001
00000010
00000001
00000000
00001000
00000010
00001000
00000000
,
00010000
00000000
00001000
00010000
00000000
00011000
00000000
00000000
,
00100000
10000000
00100000
00000000
01000000
00010000
01000000
00000000
,
00001000
00010000
00000100
00000010
,
00000001
00000100
00000001
00000000
00001000
00000100
00001000
00000000
,
00010000
00000000
01000000
00100000
00000000
10010000
00000000
00000000
;

//---------------dance-double - ----------------
#NOTES:
     dance-double:
     :
     Easy:
     3:
     0.255,0.266,0.074,0.149,0.000:
00000000
00000000
00000000
00000000
,
00000000
00000000
00000000
00000000
,
10000000
00000000
00010000
00000000
,
01000000
00000000
00000000
00010000
00000000
10000000
00000000
00000000
,
01000000
00000000
00010000
00000000
,
00001000
00000000
00000100
00000000
,
00000001
00000000
00001000
00000000
,
00000010
00000000
00000000
00001000
00000000
00000001
00000000
00000000
,
00000100
00000100
00000100
00000100
,
00000100
00000100
00000100
00000000
,
00001000
00000000
00010000
00000000
,
00001000
00000000
01000000
00000000
,
00010000
00010000
00010000
00000000
,
10000000
00010000
10000000
00000000
,
02200000
03300000
00000000
00000000
,
10000000
01000000
00010000
00000000
,
01000000
01000000
01000000
01000000
,
01000000
01000000
01000000
00000000
,
10000000
00000000
01000000
00000000
,
00010000
00000000
00001000
00000000
,
00000010
00000000
00000100
00000000
,
00000001
00000000
00001000
00000000
,
00000220
00000330
00000000
00000000
,
00000001
00000100
00001000
00000000
,
00010000
00001000
00010000
00001000
,
00100000
00010000
00100000
00000000
,
00001000
00010000
00001000
00010000
,
00000010
00001000
00000010
00000000
,
00010000
00001000
00010000
00001000
,
01000000
00010000
01000000
00000000
,
00001000
00010000
00001000
00010000
,
00000100
00001000
00000100
00000000
,
00000001
00000000
00001001
00000000
,
00000010
00001000
00000100
00010000
,
00001000
00000000
00011000
00000000
,
00100000
10000000
01000000
00000000
,
10000000
00000000
10010000
00000000
,
00100000
01000000
00001000
00010000
,
00000100
00000000
00001001
00000000
,
00000010
00000001
00000100
00000000
,
00000002
00000003
00000200
00000300
,
00000010
00001000
00000001
00000100
,
00002000
00003000
00020000
00030000
,
00001000
00000000
00000000
00010000
00000000
00001000
00000000
00000000
,
00200000
00300000
00020000
00030000
,
10000000
01000000
00100000
00010000
,
02000000
03000000
00002000
00003000
,
00010000
00000000
00000000
00001000
00000000
00010000
00000000
00000000
;

//---------------dance-single - ----------------
#NOTES:
     dance-single:
     :
     Easy:
     3:
     0.294,0.266,0.112,0.335,0.000:
0000
0000
0000
0000
,
0000
0000
0000
0000
,
2000
3000
0002
0003
,
0100
0000
0000
0100
0000
0100
0000
0000
,
0020
0030
0200
0300
,
0001
1000
0001
1000
,
0200
0300
0020
0030
,
0001
0000
0000
1000
0000
1000
0000
0000
,
0100
0000
0100
0000
,
0100
0010
1000
0100
,
0010
0000
0010
0000
,
0010
0001
0100
0010
,
1000
0000
1000
0000
,
1000
0001
0100
0010
,
0200
0300
0110
0000
,
0002
0003
1001
0000
,
0010
0000
0010
0000
,
0010
1000
0100
0010
,
0100
0000
0100
0000
,
0100
0010
0001
0010
,
0001
0000
0001
0000
,
0100
0010
1000
0100
,
0020
0030
1001
0000
,
0200
0300
1001
0000
,
0010
0010
0010
0010
,
1000
0000
0001
0001
,
0100
0100
0100
0100
,
0001
0000
1000
1000
,
0010
0010
0010
0010
,
1000
0000
0100
0000
,
0001
0000
0010
0000
,
0100
0100
1001
0010
,
0200
0300
0200
0300
,
1000
0001
1000
0001
,
0020
0030
0020
0030
,
1000
0001
1001
0000
,
0002
0003
2000
3000
,
0010
0100
0001
1000
,
0020
0030
0200
0300
,
0001
0010
0200
0300
,
2000
3000
0002
0003
,
1000
0100
0010
0001
,
2000
3000
0002
0003
,
0001
0000
0000
0100
0000
1001
0000
0000
,
0020
0030
2000
3000
,
0100
0010
0001
0100
,
0020
0030
2000
3000
,
1001
0000
0000
0100
0000
1001
0000
0000
;

//---------------dance-single - ----------------
#NOTES:
     dance-single:
     :
     Beginner:
     1:
     0.166,0.177,0.037,0.000,0.000:
0000
0000
0000
0000
,
0000
0000
0000
0000
,
1000
0000
0001
0000
,
0100
0000
0100
0000
,
0010
0000
0100
0000
,
0001
0000
0001
0000
,
0100
0000
0010
0000
,
1000
0000
1000
0000
,
0100
0000
0100
0000
,
0100
0000
0100
0000
,
0010
0000
0010
0000
,
0010
0000
0010
0000
,
1000
0000
1000
0000
,
1000
0000
1000
0000
,
0001
0000
0000
0000
,
0001
0000
0000
0000
,
0010
0000
0010
0000
,
0010
0000
0010
0000
,
0100
0000
0100
0000
,
0100
0000
0100
0000
,
0001
0000
0001
0000
,
0001
0000
0001
0000
,
1000
0000
0000
0000
,
1000
0000
0000
0000
,
0010
0010
0010
0000
,
1000
0000
0000
0000
,
0100
0100
0100
0000
,
0001
0000
0000
0000
,
0010
0010
0010
0000
,
1000
0000
0000
0000
,
0001
0000
0000
0000
,
0100
0000
1001
0000
,
0100
0000
0100
0000
,
0100
0100
0100
0000
,
0010
0000
0010
0000
,
0010
0010
0010
0000
,
0001
0000
0001
0000
,
0001
0001
0001
0000
,
1000
0000
1000
0000
,
1000
1000
1000
0000
,
1000
0000
0001
0000
,
1000
0000
0001
0000
,
1000
0000
0001
0000
,
0100
0000
1001
0000
,
0010
0000
0100
0000
,
0010
0000
0100
0000
,
0010
0000
0100
0000
,
0010
0000
1001
0000
;
