#TITLE:RADIO STAR;
#SUBTITLE:;
#ARTIST:DJ MIKO;
#TITLETRANSLIT:;
#SUBTITLETRANSLIT:;
#ARTISTTRANSLIT:;
#CREDIT:;
#BANNER:RADIO STAR.png;
#BACKGROUND:RADIO STAR-bg.png;
#LYRICSPATH:RADIO STAR.lrc;
#CDTITLE:THE LAST MILLENIUM.png;
#MUSIC:RADIO STAR.mp3;
#OFFSET:-0.028;
#SAMPLESTART:54.847;
#SAMPLELENGTH:12.000;
#SELECTABLE:YES;
#DISPLAYBPM:135.000;
#BPMS:0.000=135.000;
#STOPS:;
#BGCHANGES:;

//---------------dance-single - ----------------
#NOTES:
     dance-single:
     :
     Beginner:
     1:
     0.156,0.193,0.056,0.022,0.000:
0000
0000
0000
0000
,
0000
0000
0000
0000
,
0000
0000
0000
0000
,
0000
0000
0000
0000
,
1001
0000
0000
0000
,
0000
0000
0000
0000
,
0110
0000
0000
0000
,
0001
0001
0001
0000
,
1001
0000
0100
0000
,
0010
0000
0100
0000
,
0001
0000
1000
0000
,
0001
0000
0010
0000
,
0100
0000
0010
0000
,
0100
0000
0010
0000
,
1000
0000
0010
0000
,
0100
0100
0100
0000
,
0001
0001
0001
0000
,
1000
1000
1000
0000
,
0001
0000
0000
0000
,
1000
0000
0000
0000
,
0010
0010
0010
0000
,
0100
0100
0100
0000
,
0001
0000
0000
0000
,
1000
0000
0000
0000
,
0010
0010
0010
0000
,
0010
0010
0010
0000
,
1000
0000
0001
0000
,
1000
0000
0001
0000
,
0010
0000
0000
0000
,
0100
0000
0000
0000
,
0001
0000
0000
0000
,
1000
1000
1000
0000
,
0001
0001
0001
0000
,
1000
1000
1000
0000
,
0010
0010
0010
0000
,
0100
0000
0000
0000
,
0001
0001
0001
0000
,
0010
0010
0010
0000
,
0100
0100
0100
0000
,
1000
0000
0000
0000
,
0110
0000
1000
0000
,
0001
0000
0100
0000
,
0001
0000
0010
0000
,
0001
0000
1000
0000
,
0100
0000
1000
0000
,
0010
0000
0100
0000
,
0001
0000
0010
0000
,
0001
0000
1000
0000
,
2002
0000
0000
0000
,
0000
0000
3003
0000
;

//---------------dance-single - ----------------
#NOTES:
     dance-single:
     :
     Easy:
     4:
     0.250,0.275,0.134,0.011,0.000:
0000
0000
0000
0000
,
0000
0000
0000
0000
,
0000
0000
0000
0000
,
0000
0000
0000
0000
,
0001
1000
0000
1000
,
0000
1000
0000
1000
,
0001
1000
0000
1000
,
0010
1000
0001
0000
,
0001
0010
0001
1000
,
0010
1000
0100
1000
,
0010
0100
0001
1000
,
0100
0010
0001
0100
,
0010
0010
1001
0000
,
0100
0100
1001
0000
,
0001
0001
0110
0000
,
1000
1000
0110
0000
,
0001
0010
0001
0000
,
1000
1000
1000
0000
0000
0000
0000
0000
,
0001
0100
0001
0000
,
0010
0001
0010
0000
,
1000
0100
1000
0000
,
0001
0001
0001
0000
0000
0000
0000
0000
,
0100
0001
0100
0000
,
0010
0100
0010
0000
,
1000
0100
1000
0100
,
0010
0001
0010
0000
,
0001
0100
0010
1000
,
0010
0100
0001
0000
,
1000
1000
1000
0000
,
0001
0001
0001
0000
,
1000
0010
0100
0000
,
0001
0010
0100
0000
,
0100
0100
1001
0000
,
0010
0010
1001
0000
,
1000
0010
1000
0000
,
0001
0001
0001
0001
0000
0000
0000
0000
,
1000
1000
0110
0000
,
0001
0001
0110
0000
,
1000
0010
1000
0001
,
0100
0001
1000
0000
,
0001
0010
0001
1000
,
0100
1000
0010
0100
,
0010
1000
0001
0100
,
0001
0010
0100
0000
,
0001
0001
0110
0000
,
1000
1000
0110
0000
,
0010
0010
1001
0000
,
0100
0100
1001
0010
,
0200
0000
0000
0000
,
0000
0000
0300
0000
;

//---------------dance-single - ----------------
#NOTES:
     dance-single:
     :
     Medium:
     5:
     0.337,0.386,0.223,0.011,0.000: // measure 1
0000
0000
0000
0000
,  // measure 2
0000
0000
0000
0000
,  // measure 3
0000
0000
0000
0000
,  // measure 4
0000
0000
0000
0000
,  // measure 5
1001
0001
0000
0001
,  // measure 6
0000
0001
0000
0001
,  // measure 7
1001
1000
0000
1000
,  // measure 8
0001
0010
0100
0000
,  // measure 9
1000
0000
0010
0000
0100
0000
0001
0100
,  // measure 10
0010
0000
1000
0000
0100
0000
0010
0001
,  // measure 11
0100
0000
0010
0000
1000
0000
0010
0100
,  // measure 12
0001
1000
0100
0000
,  // measure 13
1000
0000
0010
0000
0100
0000
0010
1000
,  // measure 14
0100
0000
0010
0000
0001
0000
1000
0001
,  // measure 15
0100
0000
0010
0000
1000
0000
0001
1000
,  // measure 16
0010
0100
0001
0000
,  // measure 17
1000
0101
1000
0101
,  // measure 18
0001
0010
0001
0000
0000
0000
0000
0000
,  // measure 19
1000
0010
1000
0010
0100
0000
0000
0000
,  // measure 20
0001
0010
0001
0010
0100
0000
1000
0000
,  // measure 21
0010
1100
0010
1100
,  // measure 22
1000
0100
1000
0000
0000
0000
0000
0000
,  // measure 23
0001
0100
0001
0100
0010
0000
0000
0000
,  // measure 24
1000
0100
1000
0100
0010
0000
0000
0000
,  // measure 25
0001
0000
0010
0001
0010
0000
0000
0000
,  // measure 26
0001
0100
0001
0000
1000
0000
0010
0000
,  // measure 27
1000
0000
0001
0000
0100
0000
0001
1000
,  // measure 28
0100
1000
0010
1000
,  // measure 29
0001
0000
0100
0001
0100
0000
0000
0000
,  // measure 30
0001
0010
0001
0000
1000
0000
0010
0000
,  // measure 31
1001
0010
0100
0000
,  // measure 32
0001
0010
0001
0010
0001
0000
0000
0000
,  // measure 33
1000
0101
1000
0101
,  // measure 34
0001
0010
0001
0010
0001
0000
1000
0000
,  // measure 35
1100
0101
1100
0000
,  // measure 36
0101
1100
0101
0010
,  // measure 37
1000
0011
1000
0011
,  // measure 38
1000
0010
1000
0010
1000
0000
0000
0000
,  // measure 39
0001
1100
0001
1010
,  // measure 40
0100
0001
0100
0001
0100
0000
1001
0000
,  // measure 41
1000
0000
0010
0000
0100
0000
0001
1000
,  // measure 42
0100
0000
0010
0000
0001
0000
1000
0001
,  // measure 43
0010
0000
0100
0000
1000
0000
0010
0100
,  // measure 44
0001
1000
0010
0000
,  // measure 45
1000
0000
0001
0000
0100
0000
0010
1000
,  // measure 46
0100
0000
0010
0000
0001
0000
1000
0001
,  // measure 47
0100
0000
0010
0000
1000
0000
0100
1000
,  // measure 48
0010
0100
0001
1000
,  // measure 49
0020
0000
0000
0000
,  // measure 50
0000
0000
0030
0000
;

//---------------dance-single - ----------------
#NOTES:
     dance-single:
     :
     Hard:
     7:
     0.385,0.413,0.156,0.011,0.223:
0000
0000
0000
0000
,
0000
0000
0000
0000
,
0000
0000
0000
0000
,
0000
0000
0000
0000
0000
0000
0000
1001
,
1001
0010
0000
0010
,
0000
0010
0000
0010
,
1001
0100
0000
0100
,
0010
0001
1000
0000
,
0010
0000
0000
1000
0000
0000
0001
0000
0000
1000
0000
0000
0010
0000
0100
0000
,
0001
0000
0000
0010
0000
0000
0100
0000
0000
1000
0000
0000
0100
0000
0010
0000
,
0001
0000
0000
1000
0000
0000
0010
0000
0000
1000
0000
0000
0001
0000
0010
0000
,
0100
0000
0000
1000
0000
0000
0010
0000
0000
1000
0000
0000
0100
0000
1000
0000
,
0010
0000
0000
0100
0000
0000
0001
0000
0000
0100
0000
0000
0010
0000
1000
0000
,
0001
0000
0000
0010
0000
0000
0100
0000
0000
0010
0000
0000
0001
0000
1000
0000
,
0010
0000
0000
1000
0000
0000
0001
0000
0000
1000
0000
0000
0010
0000
0100
0000
,
0001
0000
0000
0010
0000
0000
0001
0000
0000
1000
0000
0000
0001
0000
0100
0000
,
0010
1000
0001
0100
,
0010
1000
0100
0000
0010
0000
0001
0000
,
1010
0011
1010
0000
,
0011
0000
1010
0000
0011
0000
1000
0100
,
1000
0000
0001
0100
0001
0000
1000
0000
,
0010
1000
0001
0000
0100
0000
0010
0000
,
1000
0100
0001
0000
0100
0000
1000
0000
,
0010
0100
0001
0000
1000
0000
0000
0000
,
1001
0110
1001
0000
,
1000
0100
0010
0001
0000
0000
0001
0010
,
0100
0000
1000
0001
0100
0000
0010
1000
,
0100
0000
1000
0001
0100
0000
0010
1000
,
0100
0000
0000
0000
1000
0000
0010
1000
,
0001
0000
0001
0000
0010
0000
0100
1000
,
0001
1000
0010
0100
,
0001
0010
0100
1000
0100
0000
1001
0000
,
0010
0000
0000
1000
0000
0000
0001
0000
0000
1000
0000
0000
0010
0000
0100
0000
,
0001
0000
0000
1000
0000
0000
0100
0000
0000
1000
0000
0000
0001
0000
0100
0000
,
0010
0010
0100
0100
,
0001
0010
0100
1000
0000
0000
0010
0000
,
1000
0000
0000
0001
0000
0000
0100
0000
0000
0001
0000
0000
1000
0000
0100
0000
,
0010
0000
0000
0001
0000
0000
0100
0000
0000
0001
0000
0000
0010
0000
0100
0000
,
1000
1000
0001
0001
,
0100
0010
1000
0001
0000
0000
0101
0000
,
1000
0000
0000
0100
0000
0000
0001
0000
0000
0100
0000
0000
1000
0000
0010
0000
,
0100
0000
0000
0010
0000
0000
1000
0000
0000
0010
0000
0000
0100
0000
0001
0000
,
0010
0000
0000
0100
0000
0000
1000
0000
0000
0100
0000
0000
0010
0000
0001
0000
,
0100
0000
0000
0010
0000
0000
1000
0000
0000
0010
0000
0000
0100
0000
0001
0000
,
0010
0000
0000
0001
0000
0000
1000
0000
0000
0001
0000
0000
0010
0000
0100
0000
,
1000
0000
0000
0010
0000
0000
0100
0000
0000
0010
0000
0000
1000
0000
0100
0000
,
0010
0000
0000
0001
0000
0000
1000
0000
0000
0001
0000
0000
0010
0000
0100
0000
,
1000
0000
0000
0010
0000
0000
0001
0000
0000
0010
0000
0000
1000
0000
0100
0000
,
0020
0000
0000
0000
,
0000
0000
0030
0000
;
